Скачать через торрент Школа-тюрьма Kangoku Gakuen бесплатно Аниме Все серии на русском torrent

Если у вас наблюдаются проблемы со скриншотами, переходом по ссылками, скачиванием торрентов - проблемы в блокировщике рекламы AdBlock. #хорошегоДня!


Статистика раздачи
Размер:  763 MB   |    Зарегистрирован:  2 года 4 месяца   |    .torrent скачан:  76 раз   |   
Раздают:  1  
   
Загрузка...
 
Автор Сообщение

Galfimbul

avatar Galfimbul


Школа-тюрьма / Школа-зона / Kangoku Gakuen / Prison School

Страна: Япония
Год выпуска: 2015 г.
Жанр: комедия, этти, романтика, школа
Тип: TV
Продолжительность: 13 эп. по ~25 мин.
Режиссер: Мидзусима Цутому
Студия: J.C. Staff

Описание: В частной женской академии имени Хачимитсу не так давно произошли изменения - она стала смешанной. Случилось это после смены директора школы по непонятным причинам. Все девочки были в шоке и конечно же не одобряли такие нововведения. Но деваться было некуда. К счастью, сформировавшийся авторитет школы не привлёк в новом году множества мальчишек. Дело в том, что академия Хачимитсу славится своим жёстким нравом и строгими правилам. Зачастую её называют тюрьмой.

Но всё таки несколько ребят отважились и поступили. Да... всего их было пятеро, на всю школу... а девушек 1016. Можно подумать, что ребята попали в настоящий гарем, где на одного юношу приходятся 200 девушек, но не тут то было. Парни были очень застенчивыми и даже боялись столкнутся с девушкой взглядом на огромном расстоянии друг от друга. А когда у них окончательно заиграли гормоны, ребята решили на рискованную операцию под кодовым названием "Подглядывание". Как и ожидалось, они облажались, попавшись в руки подпольного учсовета, который отвечает за соблюдения нравственных правил этой академии. Теперь пошляков ждёт самое суровое наказание...

Качество: HDTVRip
Тип релиза: Без хардсаба
Формат видео: MP4
Наличие линковки: Нет
Релиз/Автор рипа: Leopard-Raws
Видео: x264 (8 bit), 1280x720, ~1900 Kbps, 23.976 fps
Аудио JAP: AAC, 48000 Hz, ~192 Kbps, 2 ch
Аудио RUS: AAC, 48000 Hz, ~192 Kbps, 2 ch (внешними файлами); Озвучка: двухголосая (муж./жен.) от Zendos & Eladiel (Onibaku Group)
Субтитры RUS 1: ASS, внешние; Перевод: General TAB; Редакция: Evafan Satin [Shift]
Субтитры RUS 2: ASS, внешние; Перевод: Dc Nemo; Редакция: Sandy Keat, Olivia Dei [I.D.A.]
GeneralComplete name : C:\Documents and Settings\Администратор\Рабочий стол\Prison School\[Leopard-Raws] Prison School - 01 RAW (MX 1280x720 x264 AAC).mp4Format : MPEG-4Format profile : Base MediaCodec ID : isomFile size : 367 MiBDuration : 24mn 59sOverall bit rate mode : VariableOverall bit rate : 2 050 KbpsEncoded date : UTC 2015-07-11 05:48:03Tagged date : UTC 2015-07-11 05:48:03

VideoID : 1Format : AVCFormat/Info : Advanced Video CodecFormat profile : High@L4.1Format settings, CABAC : YesFormat settings, ReFrames : 4 framesCodec ID : avc1Codec ID/Info : Advanced Video CodingDuration : 24mn 59sBit rate : 1 854 KbpsMaximum bit rate : 14.4 MbpsWidth : 1 280 pixelsHeight : 720 pixelsDisplay aspect ratio : 16:9Frame rate mode : ConstantFrame rate : 23.976 fpsColor space : YUVChroma subsampling : 4:2:0Bit depth : 8 bitsScan type : ProgressiveBits/(Pixel*Frame) : 0.084Stream size : 332 MiB (90%)Title : 264:fps=23.976@GPAC0.5.1-DEV-rev4929Writing library : x264 core 129 r2245+729M 1a52e03Encoding settings : cabac=1 / ref=4 / deblock=1:1:-1 / analyse=0x3:0x113 / me=umh / subme=9 / psy=1 / fade_compensate=0.00 / psy_rd=1.00:0.00 / mixed_ref=1 / me_range=24 / chroma_me=1 / trellis=2 / 8x8dct=1 / cqm=0 / deadzone=21,11 / fast_pskip=1 / chroma_qp_offset=-2 / threads=8 / lookahead_threads=1 / sliced_threads=0 / nr=0 / decimate=1 / interlaced=0 / bluray_compat=0 / constrained_intra=0 / fgo=0 / bframes=9 / b_pyramid=2 / b_adapt=2 / b_bias=0 / direct=1 / weightb=1 / open_gop=0 / weightp=2 / keyint=240 / keyint_min=24 / scenecut=40 / intra_refresh=0 / rc=crf / mbtree=0 / crf=18.5 / qcomp=0.72 / qpmin=0 / qpmax=69 / qpstep=4 / ip_ratio=1.40 / pb_ratio=1.30 / aq=1:0.85Encoded date : UTC 2015-07-11 05:48:03Tagged date : UTC 2015-07-11 05:48:15Color primaries : BT.709Transfer characteristics : BT.709Matrix coefficients : BT.709

AudioID : 2Format : AACFormat/Info : Advanced Audio CodecFormat profile : LCCodec ID : 40Duration : 24mn 59sBit rate mode : VariableBit rate : 192 KbpsMaximum bit rate : 225 KbpsChannel count : 2 channelsChannel positions : Front: L RSampling rate : 48.0 KHzCompression mode : LossyStream size : 34.3 MiB (9%)Language : JapaneseEncoded date : UTC 2015-07-10 17:12:08Tagged date : UTC 2015-07-11 05:48:15
01. Задача: подглядеть
02. Парень, который конкретно ЗАДрал
[url]...5040432[/url] - наличие озвучки


Трекер:  [ 19-Июл-2015 03:00 ]

  

Скачать .torrent

Размер .torrent файла 16 KB


Размер: 763 MB
Хэш (hash) релиза: 793712d0c212a9aa6116ee19d1c0b4757e4f8665
Подписка на обновления:

Торренты, похожие на Школа-тюрьма Kangoku Gakuen скачать торрент

Форум Название Автор Размер S L Добавлен
Аниме | HD Rips ·· Школа-тюрьма / Kangoku Gakuen / Prison School (Мидзусима Цутому) [TV] [Без хардсаба] [01-02 из 12] [RUS(ext), JAP+SUB] [2015 г., комедия, этти, школа, BDRip] [1080p] Galfimbul 24923514552.32 GB 1 1 1447444997

23:03

13-Ноя-15

Аниме | HD Rips ·· Школа-тюрьма / Kangoku Gakuen / Prison School (Мидзусима Цутому) [TV] [Без хардсаба] [01-02 из 12] [RUS(ext), JAP+SUB] [2015 г., комедия, этти, школа, BDRip] [720p] Galfimbul 975313287930 MB 0 0 1447434356

20:05

13-Ноя-15

Аниме | HD Rips ·· Школа-тюрьма / Prison School / Kangoku Gakuen (Мидзусима Цутому) [TV] [12 из 12] [без хардсаба] [RUS(ext), JAP+SUB] [2015, комедия, этти, школа, BDRemux] [1080p] Galfimbul 8746490945481.46 GB 2 0 1512867697

04:01

10-Дек-17

Аниме | Rips ·· Школа-тюрьма / Prison School / Kangoku Gakuen [OVA] [1 из 1] [без хардсаба] [RUS(ext), JAP+SUB] [2016, комедия, этти, школа, DVDRip] Galfimbul 620823197592 MB 0 0 1496963141

02:05

9-Июн-17

Аниме | Rips ·· Школа-тюрьма / Prison School / Kangoku Gakuen [OVA] [01 из 01] [Без хардсаба] [RUS(ext), JAP, SUB] [2016 г., Комедия, Этти, Школа, DVDRip] Galfimbul 295452912282 MB 0 0 1460889603

13:40

17-Апр-16

Аниме | Rips ·· Школа-тюрьма / Prison School / Kangoku Gakuen [OVA] [01 из 01] [Без хардсаба] [JAP, SUB] [2016 г., Комедия, Этти, Школа, DVDRip] Galfimbul 252425545241 MB 0 0 1459636811

01:40

3-Апр-16

Аниме | HD Rips ·· Школа-тюрьма / Prison School / Kangoku Gakuen (Мидзусима Цутому) [TV] [1 из >12] [без хардсаба] [JAP+SUB] [2015 г., комедия, этти, HDTVRip] [720p] Galfimbul 376159918359 MB 0 0 1436590492

07:54

11-Июл-15

Еще никто не оставлял запись к записи скачать торрент Школа-тюрьма Kangoku Gakuen . Будь первым!

!Обратная связь