Скачать через торрент Повседневная жизнь с девушкой-монстром Monster Musume no Iru Nichijou бесплатно Аниме Все серии на русском torrent

Если у вас наблюдаются проблемы со скриншотами, переходом по ссылками, скачиванием торрентов - проблемы в блокировщике рекламы AdBlock. #хорошегоДня!


Статистика раздачи
Размер:  1.93 GB   |    Зарегистрирован:  2 года 4 месяца   |    .torrent скачан:  89 раз   |   
Раздают:  1  
   
Загрузка...
 
Автор Сообщение

Galfimbul

avatar Galfimbul


Повседневная жизнь с девушкой-монстром / Monster Musume no Iru Nichijou / Everyday Life with Monster Girls

Страна: Япония
Год выпуска: 2015 г.
Жанр: комедия, этти, фэнтези, романтика
Тип: TV
Продолжительность: 12 эп. по ~25 мин.
Режиссер: Ёсихара Тацуя
Студия: Lerche

Перевод:

русские субтитры от eX_fr0sT & YakuSub Studio
(Перевод: Oreki; Перевод/Оформление: eX_fr0sT; Редактура/Тайм-код: Nyam Maro.)

русские субтитры от NightmareSubs
(Перевод: virlyx; Редактура: King of Pigeons; Оформление: Aoki Star; Тайм-код: Dante31)

Описание: Ещё совсем недавно почти все люди жили в блаженном неведении, будто являются единственным разумным видом на планете, но три года назад всё изменилось. На свет вышла истина, доселе тщательно скрываемая правящей верхушкой: бок о бок с людьми живут «монстры» – существа, ранее считавшиеся плодом человеческого воображения. С целью установить крепкие связи между людьми и представителями других видов, был введён закон о культурном обмене, согласно которому монстры могли посещать государства людей и изучать их обычаи, проживая с ними под одной крышей.

Одним из «везунчиков», осуществляющих интеграцию монстров в мир людей, оказался Кимихито Курусу, паренёк, которого легкомысленная координатор мисс Смит наградила подопечной в лице ламии Мии – наполовину девушки, наполовину змеи. Кимихито очень быстро понял, что влип по самую макушку – Мия оказалась невероятно любвеобильной девицей, а по закону о культурном обмене, за соблюдением которого пристально следит мисс Смит, интимные отношения между видами строго-настрого запрещены. Впрочем, настоящие проблемы у Кимихито начались позднее, когда Смит подселила к нему ещё нескольких квартиранток и сообщила, что в закон внесли некоторые весьма серьёзные изменения...

Качество: HDTVRip
Тип релиза: Без хардсаба
Формат видео: MP4
Наличие линковки: Нет
Релиз/Автор рипа: Leopard-Raws
Видео: x264 (8 bit), 1280x720, ~1900 Kbps, 23.976 fps
Аудио JAP: AAC, 48000 Hz, ~192 Kbps, 2 ch
Аудио RUS: ААС, 48000 Hz, ~128 Kbps, 2 ch (внешними файлами); Озвучка: трёхголосая от Cuba77, NikaLenina & Гамлетка Цезаревна (AniDub)
Субтитры RUS 1: ASS, внешние; Перевод: eX_fr0sT & YakuSub Studio
Субтитры RUS 2: ASS, внешние; Перевод: NightmareSubs
GeneralComplete name : C:\Documents and Settings\Администратор\Рабочий стол\Monster Musume no Iru Nichijou\[Leopard-Raws] Monster Musume no Iru Nichijou - 01 RAW (KBS 1280x720 x264 AAC).mp4Format : MPEG-4Format profile : Base MediaCodec ID : isomFile size : 363 MiBDuration : 23mn 59sOverall bit rate mode : VariableOverall bit rate : 2 116 KbpsEncoded date : UTC 2015-07-07 18:04:34Tagged date : UTC 2015-07-07 18:04:34

VideoID : 1Format : AVCFormat/Info : Advanced Video CodecFormat profile : High@L4.1Format settings, CABAC : YesFormat settings, ReFrames : 4 framesCodec ID : avc1Codec ID/Info : Advanced Video CodingDuration : 23mn 59sBit rate : 1 921 KbpsMaximum bit rate : 21.4 MbpsWidth : 1 280 pixelsHeight : 720 pixelsDisplay aspect ratio : 16:9Frame rate mode : ConstantFrame rate : 23.976 fpsColor space : YUVChroma subsampling : 4:2:0Bit depth : 8 bitsScan type : ProgressiveBits/(Pixel*Frame) : 0.087Stream size : 330 MiB (91%)Title : 264:fps=23.976@GPAC0.5.1-DEV-rev4929Writing library : x264 core 129 r2245+729M 1a52e03Encoding settings : cabac=1 / ref=4 / deblock=1:1:-1 / analyse=0x3:0x113 / me=umh / subme=9 / psy=1 / fade_compensate=0.00 / psy_rd=1.00:0.00 / mixed_ref=1 / me_range=24 / chroma_me=1 / trellis=2 / 8x8dct=1 / cqm=0 / deadzone=21,11 / fast_pskip=1 / chroma_qp_offset=-2 / threads=8 / lookahead_threads=1 / sliced_threads=0 / nr=0 / decimate=1 / interlaced=0 / bluray_compat=0 / constrained_intra=0 / fgo=0 / bframes=9 / b_pyramid=2 / b_adapt=2 / b_bias=0 / direct=1 / weightb=1 / open_gop=0 / weightp=2 / keyint=240 / keyint_min=24 / scenecut=40 / intra_refresh=0 / rc=crf / mbtree=0 / crf=18.5 / qcomp=0.72 / qpmin=0 / qpmax=69 / qpstep=4 / ip_ratio=1.40 / pb_ratio=1.30 / aq=1:0.85Encoded date : UTC 2015-07-07 18:04:34Tagged date : UTC 2015-07-07 18:04:38Color primaries : BT.709Transfer characteristics : BT.709Matrix coefficients : BT.709

AudioID : 2Format : AACFormat/Info : Advanced Audio CodecFormat profile : LCCodec ID : 40Duration : 23mn 59sBit rate mode : VariableBit rate : 192 KbpsMaximum bit rate : 229 KbpsChannel count : 2 channelsChannel positions : Front: L RSampling rate : 48.0 KHzCompression mode : LossyStream size : 32.9 MiB (9%)Language : JapaneseEncoded date : UTC 2015-07-07 16:48:12Tagged date : UTC 2015-07-07 18:04:38
01. Everyday Life with a Lamia / Повседневная жизнь с ламией
02. Everyday Life with a Harpy and Centaur / Повседневная жизнь с гарпией и кентавром
03. Everyday Life Under Dangerous Circumstances / Повседневная жизнь в опасных условиях
04. Everyday Life with a Slime / Повседневная жизнь со слизью
05. Everyday Life with a Mermaid / Повседневная жизнь с русалкой


Трекер:  [ 05-Авг-2015 19:00 ]

  

Скачать .torrent

Размер .torrent файла 22 KB


Размер: 1.93 GB
Хэш (hash) релиза: 87ad36857de371963fdacf33b016fcae25912748
Подписка на обновления:

Торренты, похожие на Повседневная жизнь с девушкой-монстром Monster Musume no Iru Nichijou скачать торрент

Форум Название Автор Размер S L Добавлен
Аниме | HD Rips ·· Повседневная Жизнь с Девушками-Монстрами / Monster Musume no Iru Nichijou / Everyday Life with Monster Girls [TV+Special] [Без хардсаба] [12+60 из 12+60] [JAP+SUB] & [12+0 из 12+60] [RUS(ext)] [2015, комедия, повседневность, этти, BDRip] [1080p] Galfimbul 1735898242016.17 GB 0 0 1499880691

20:31

12-Июл-17

Аниме | HD Rips ·· Повседневная Жизнь с Девушками-Монстрами / Monster Musume no Iru Nichijou / Everyday Life with Monster Girls [OVA] [Без хардсаба] [2 из 2] [JAP+SUB] & [1 из 2] [RUS(ext)] [2016, комедия, повседневность, этти, BDRip] Galfimbul 46355624114.32 GB 0 0 1499810549

01:02

12-Июл-17

Аниме | Rips ·· Повседневная Жизнь с Девушками-Монстрами / Monster Musume no Iru Nichijou / Everyday Life with Monster Girls [OVA] [Без хардсаба] [2 из 2] [JAP+SUB] & [1 из 2] [RUS(ext)] [2016, комедия, повседневность, этти, DVDRip] Galfimbul 15250436461.42 GB 0 0 1496930554

17:02

8-Июн-17

Аниме | Rips ·· Повседневная Жизнь с Девушками-Монстрами / Monster Musume no Iru Nichijou / Everyday Life with Monster Girls [OVA] [2 из 2] [Без хардсаба] [RUS(ext), JAP, SUB] [2016, Комедия, Этти, Фэнтези, Романтика, Гарем, DVDRip] Galfimbul 15629510571.46 GB 0 0 1496965160

02:39

9-Июн-17

Аниме | Rips ·· Повседневная Жизнь с Девушками-Монстрами / Monster Musume no Iru Nichijou / Everyday Life with Monster Girls [OVA] [01 из 02] [Без хардсаба] [RUS(ext), JAP, SUB] [2016, Комедия, Этти, Фэнтези, Романтика, Гарем, DVDRip] Galfimbul 350178633334 MB 0 0 1479755305

22:08

21-Ноя-16

Аниме | HD Rips ·· Повседневная жизнь с девушкой-монстром / Monster Musume no Iru Nichijou / Everyday Life with Monster Girls (Ёсихара Тацуя) [TV] [01-08 из 12] [Без хардсаба] [RUS(ext), JAP+SUB] [2015 г., комедия, этти, фэнтези, романтика, BDRip] [720p] Galfimbul 35979002793.35 GB 0 0 1450542844

19:34

19-Дек-15

Аниме | HD Rips ·· Повседневная жизнь с девушкой-монстром / Monster Musume no Iru Nichijou / Everyday Life with Monster Girls [TV] [01-04 из 12] [Без хардсаба] [RUS(ext), JAP+SUB] [2015 г., комедия, этти, фэнтези, романтика, BDRip] [1080p] Galfimbul 1842796369517.16 GB 0 0 1448047187

22:19

20-Ноя-15

Аниме | HD Rips ·· Повседневная жизнь с девушкой-монстром / Monster Musume no Iru Nichijou / Everyday Life with Monster Girls [TV] [Без хардсаба] [01-02 из 12] [RUS(ext), JAP+SUB] [2015 г., комедия, этти, фэнтези, романтика, BDRip] [720p] Galfimbul 959414016915 MB 0 0 1443301595

00:06

27-Сен-15

Аниме | HD Rips ·· Повседневная жизнь с девушкой-монстром / Monster Musume no Iru Nichijou / Everyday Life with Monster Girls (Ёсихара Тацуя) [TV] [1 из 12] [Без хардсаба] [RUS(ext), JAP+SUB] [2015 г., комедия, этти, фэнтези, романтика, HDTVRip] [720p] Galfimbul 404105773385 MB 0 0 1436405386

04:29

9-Июл-15

Аниме | Rips ·· Повседневная Жизнь с Девушками-Монстрами / Everyday Life with Monster Girls / Monster Musume no Iru Nichijou [Special] [1 из 1] [Без хардсаба] [RUS(ext), JAP, SUB] [2015 г., Комедия, Этти, Фэнтези, Романтика, BDRip] [720p] Galfimbul 383388673366 MB 0 0 1465117510

12:05

5-Июн-16

Аниме | Rips ·· Повседневная Жизнь с Девушками-Монстрами / Everyday Life with Monster Girls / Monster Musume no Iru Nichijou [Special] [1 из 1] [Без хардсаба] [RUS(ext), JAP] [2015 г., Комедия, Этти, Фэнтези, Романтика, BDRip] [720p] Galfimbul 383351747366 MB 0 0 1465114964

11:22

5-Июн-16

Аниме | HD Rips ·· Повседневная Жизнь с Девушками-Монстрами / Everyday Life with Monster Girls / Monster Musume no Iru Nichijou [TV] [01-02 из 12] [Без хардсаба] [JAP, SUB] [2015 г., Комедия, Этти, Фэнтези, Романтика, BDRip] [720p] Galfimbul 890839566850 MB 0 0 1443301599

00:06

27-Сен-15

Еще никто не оставлял запись к записи скачать торрент Повседневная жизнь с девушкой-монстром Monster Musume no Iru Nichijou . Будь первым!

!Обратная связь