Скачать через торрент музыку бесплатно без регистрации torrent

Если у вас наблюдаются проблемы со скриншотами, переходом по ссылками, скачиванием торрентов - проблемы в блокировщике рекламы AdBlock. #хорошегоДня!


Статистика раздачи
Размер:  295 MB   |    Зарегистрирован:  2 года 3 месяца   |    .torrent скачан:  34 раза   |   
Раздают:  1  
   
Загрузка...
 
Автор Сообщение

Galfimbul

avatar Galfimbul


Миссия невыполнима: Племя изгоев / Mission: Impossible - Rogue Nation

Название альбома: Mission: Impossible - Rogue Nation (Music from the Motion Picture)
Жанр: Score
Носитель: WEB
Композитор: Joe Kraemer
Год выпуска: 2015
Издатель (лейбл): La-La Land Records
Аудиокодек: FLAC (*.flac)
Тип рипа: tracks
Битрейт аудио: lossless
Продолжительность: 01:08:08
Источник: WRZMusic (error404)
Наличие сканов в содержимом раздачи: нет



Треклист:
01. The A400 (6:38)
02. Solomon Lane (4:08)
03. Good Evening, Mr. Hunt (2:35)
04. Escape to Danger (2:46)
05. Havana to Vienna (5:13)
06. A Flight At The Opera (2:23)
07. The Syndicate (3:44)
08. The Plan (3:21)
09. The Torus (7:02)
10. Moroccan Pursuit (2:28)
11. Grave Consequences (4:12)
12. A Matter of Going (5:06)
13. The Blenheim Sequence (4:00)
14. Audience With the Prime Minister (4:23)
15. A Foggy Night in London (2:10)
16. Meet the IMF (1:47)
17. Finale and Curtain Call (6:14)
-----------------------

DON'T MODIFY THIS FILE

-----------------------

PERFORMER: auCDtect Task Manager, ver. 1.5.1RC6 build 1.5.1.7Copyright (c) 2008-2010 y-soft. All rights reservedhttp://y-soft.org

ANALYZER: auCDtect: CD records authenticity detector, version 0.8.2Copyright (c) 2004 Oleg Berngardt. All rights reserved.Copyright (c) 2004 Alexander Djourik. All rights reserved.

FILE: 01 The A400.flac Size: 35033752 Hash: 576DF610179069E5F60A1AD61227E191 Accuracy: -m8 Conclusion: CDDA 100% Signature: 321A5B2B8EDFD3486FB9D1590638C9AEDA3796C4FILE: 02 Solomon Lane.flac Size: 17256488 Hash: 91379C8FDD51BCBABB37DF6B68B026C1 Accuracy: -m8 Conclusion: CDDA 100% Signature: C1F55D645345F1FE859AECD054DC8FE07137FDE2FILE: 03 Good Evening, Mr. Hunt.flac Size: 10478495 Hash: 383D02B2471D5C381B729AF385FA6B29 Accuracy: -m8 Conclusion: CDDA 100% Signature: 8FEEC9A5C81FCC5AAA233C11FACCDC927D1F704AFILE: 04 Escape to Danger.flac Size: 13717526 Hash: EF8B2DAF04908EC449482D9C4C6414E5 Accuracy: -m8 Conclusion: CDDA 100% Signature: 5F85F0893791F5F9FA9928217F8DC52A7F960000FILE: 05 Havana to Vienna.flac Size: 22870407 Hash: FCC78B2575A1F29F2AC0CE3602CC1179 Accuracy: -m8 Conclusion: CDDA 100% Signature: AF648C2F412D95508F797B6BE48A1B82DE7ED4AFFILE: 06 A Flight at the Opera.flac Size: 12605524 Hash: 902AD315856712067799790A8D22102E Accuracy: -m8 Conclusion: CDDA 99% Signature: EAF44466107DA8AA07310E33FDAB8945CD7E40E9FILE: 07 The Syndicate.flac Size: 15463518 Hash: 2467D94B0BE1D9D70EA67ED6AC421125 Accuracy: -m8 Conclusion: CDDA 100% Signature: F12DB24F02DB0F131E62FDA8EF8D277E68052CBCFILE: 08 The Plan.flac Size: 13834025 Hash: 6B95BF7C71096EEE9D73460D04A2EDDF Accuracy: -m8 Conclusion: CDDA 100% Signature: 3053DF32ABE43FBCC35F91966B677552C7DA9D7DFILE: 09 The Torus.flac Size: 31177430 Hash: AD18765B7C6F9386EB12D04C9A6E204C Accuracy: -m8 Conclusion: CDDA 100% Signature: A4DBC2AA9C773C1373C577A95756EF7E8938C6A5FILE: 10 Morocco Pursuit.flac Size: 16890819 Hash: DF89F8B35B65D1CF70781009EAB72E28 Accuracy: -m8 Conclusion: CDDA 100% Signature: 84ECE0639B6B3987C1F870F3F1E8418846CDAC78FILE: 11 Grave Consequences.flac Size: 14550508 Hash: F5B4010B41EDE30E6F0ABB03093F0D6D Accuracy: -m8 Conclusion: CDDA 100% Signature: 7B82956E452C890C3C9ABAB8EC7581469A386251FILE: 12 A Matter of Going.flac Size: 18745964 Hash: 2466286E68C2729B19EA45F8E131C30C Accuracy: -m8 Conclusion: CDDA 100% Signature: A1D85D2CDEC029A153F2796DDE221339322883B5FILE: 13 The Blenheim Sequence.flac Size: 16214406 Hash: 2272048E388F88576D365ABD1F39863E Accuracy: -m8 Conclusion: CDDA 100% Signature: 4313ED0445FD6EEE4EE66854D7A4BE4933A88047FILE: 14 Audience with the Prime Minister.flac Size: 17636715 Hash: D829A6576F2FB89F41A9BD92D7CCA675 Accuracy: -m8 Conclusion: CDDA 100% Signature: 8253F9E04DC414BEF7148045C7690E3F2FBF39B6FILE: 15 A Foggy Night in London.flac Size: 12041444 Hash: 6532D3EFEE6032345D706B14F052CDE3 Accuracy: -m8 Conclusion: CDDA 100% Signature: A50F5E71A04AC45B6E72C6D13845DF2242BDA400FILE: 16 Meet the IMF.flac Size: 8946782 Hash: D8B23D19D18498EAEB306900E231B129 Accuracy: -m8 Conclusion: CDDA 100% Signature: 6A1E1DEB5E2B5B73B66ABB4F812492D676CB4A64FILE: 17 Finale and Curtain Call.flac Size: 31309925 Hash: FF107E221E9F4AEAD17F46F1B9D8F8A9 Accuracy: -m8 Conclusion: CDDA 100% Signature: 2F3A83D6500BC44C49A93F3B251A780CE6F62FBA
foobar2000 1.3.8 / Dynamic Range Meter 1.1.1log date: 2015-08-18 09:23:08

--------------------------------------------------------------------------------Analyzed: Joe Kraemer / Mission: Impossible - Rogue Nation (Music from the Motion Picture)--------------------------------------------------------------------------------

DR Peak RMS Duration Track--------------------------------------------------------------------------------DR11 -0.38 dB -15.93 dB 6:38 01-The A400DR11 -0.50 dB -18.10 dB 4:08 02-Solomon LaneDR12 -0.48 dB -18.34 dB 2:35 03-Good Evening, Mr. HuntDR12 -0.42 dB -16.38 dB 2:46 04-Escape to DangerDR15 -0.46 dB -21.20 dB 5:13 05-Havana to ViennaDR11 -0.54 dB -15.53 dB 2:23 06-A Flight at the OperaDR15 -0.50 dB -22.02 dB 3:44 07-The SyndicateDR17 -0.50 dB -21.98 dB 3:21 08-The PlanDR16 -0.49 dB -21.19 dB 7:02 09-The TorusDR10 -0.50 dB -12.42 dB 2:29 10-Morocco PursuitDR13 -9.47 dB -28.38 dB 4:12 11-Grave ConsequencesDR17 -0.50 dB -23.57 dB 5:05 12-A Matter of GoingDR13 -0.61 dB -20.49 dB 4:00 13-The Blenheim SequenceDR14 -0.47 dB -19.90 dB 4:23 14-Audience with the Prime MinisterDR11 -0.44 dB -14.35 dB 2:10 15-A Foggy Night in LondonDR9 -0.50 dB -14.07 dB 1:47 16-Meet the IMFDR10 -0.50 dB -14.49 dB 6:14 17-Finale and Curtain Call--------------------------------------------------------------------------------

Number of tracks: 17Official DR value: DR13

Samplerate: 44100 HzChannels: 2Bits per sample: 16Bitrate: 668 kbpsCodec: FLAC================================================================================


Трекер:  [ 30-Авг-2015 10:00 ]

  

Скачать .torrent

Размер .torrent файла 7 KB


Размер: 295 MB
Хэш (hash) релиза: 21169797fb924a1018de9e4f08ba6856657ae479

Еще никто не оставлял запись к записи скачать торрент . Будь первым!

!Обратная связь