Скачать через торрент музыку Луна Понтиак Pontiac Moon бесплатно без регистрации torrent

Если у вас наблюдаются проблемы со скриншотами, переходом по ссылками, скачиванием торрентов - проблемы в блокировщике рекламы AdBlock. #хорошегоДня!


Статистика раздачи
Размер:  360 MB   |    Зарегистрирован:  2 года 3 месяца   |    .torrent скачан:  13 раз   |   
Раздают:  1  
   
Загрузка...
 
Автор Сообщение

Galfimbul

avatar Galfimbul


Луна Понтиак / Pontiac Moon
Жанр: Score
Композитор: Randy Edelman
Год выпуска диска: 2015
Год выпуска фильма: 1994
Производитель диска: Tecnodisco, Spain
Издатель (лейбл): Quartet Records
Номер по каталогу: QR184
Аудиокодек: FLAC (*.flac)
Тип рипа: tracks+.cue
Битрейт аудио: lossless
Продолжительность: 00:48:03
Источник: собственный рип
Наличие сканов в содержимом раздачи: да, 600 dpi
Доп. информация: Лимитированное издание, 1000 копий.
Ссылки: Кинопоиск | IMDB | Wikipedia | SoundtrackCollector | [url=...Pontiac+Moon+Peter]Фильм на трекере[/url]
MP3: [url=...5061183](Score) Луна Понтиак / Pontiac Moon (by Randy Edelman) - 2015 (1994), MP3 (tracks) 320 kbps[/url]
Randy Edelman на трекере: [url=...786&nm=Randy+Edelman]lossless[/url] | [url=...785&nm=Randy+Edelman]lossy[/url]
01. Main Titles [0:03:02.05]
02. Andy the Outsider [0:01:03.32]
03. Trusty Old Chief [0:02:02.07]
04. Fred Intrudes / Classroom [0:02:30.41]
05. Katherine Won’t Budge [0:01:20.10]
06. The Chance [0:02:38.24]
07. A Room With No Windows [0:01:39.38]
08. Countdown / Blast Off [0:01:04.01]
09. Katherine Finds Letter [0:01:34.68]
10. Century Plant [0:01:21.21]
11. Apollo 11 in the Sky [0:01:35.01]
12. Katherine’s First Try [0:01:11.03]
13. Ernest Joins Them [0:00:48.25]
14. Katherine Must Merge [0:00:44.64]
15. Photographs [0:00:58.57]
16. Ernest Gives Feather [0:01:41.50]
17. Newspaper [0:00:41.11]
18. Andy Takes the Wheel [0:01:15.18]
19. Snake Scares Lorraine / Escape From Bar [0:01:03.02]
20. Fly to Moon in Car / Andy Learns Truth [0:01:35.29]
21. Dad Has to Relax [0:01:02.10]
22. Arrival of Lorraine / The Law of Entropy / Katherine Drives By [0:02:18.64]
23. 9M5 [0:00:57.47] *)
24. 10M1 [0:01:08.12] *)
25. Cop Follows Washington [0:01:04.24]
26. First Chase [0:02:35.36]
27. Andy Beats the Car [0:01:37.46]
28. Andy’s Perfect Act / Crater Stunt [0:03:00.43]
29. Crater Reunion [0:00:54.45]
30. Do It for Katherine [0:00:41.29]
31. One Small Step / Escape to Canada [0:02:51.56]

*) Does Not Appear in the Film
Exact Audio Copy V1.1 from 23. June 2015

EAC extraction logfile from 15. August 2015, 19:49

Randy Edelman / Pontiac Moon

Used drive : PLEXTOR CD-R PX-230A Adapter: 1 ID: 3

Read mode : SecureUtilize accurate stream : YesDefeat audio cache : YesMake use of C2 pointers : No

Read offset correction : 738Overread into Lead-In and Lead-Out : NoFill up missing offset samples with silence : YesDelete leading and trailing silent blocks : NoNull samples used in CRC calculations : YesUsed interface : Native Win32 interface for Win NT & 2000Gap handling : Appended to previous track

Used output format : User Defined EncoderSelected bitrate : 1024 kBit/sQuality : HighAdd ID3 tag : NoCommand line compressor : C:\Program Files (x86)\Exact Audio Copy\FLAC\FLAC.EXEAdditional command line options : -6 -V -T "ARTIST=%artist%" -T "TITLE=%title%" -T "ALBUM=%albumtitle%" -T "DATE=%year%"-T "TRACKNUMBER=%tracknr%" -T "GENRE=%genre%" -T "COMMENT=%comment%" -T "ALBUMARTIST=%albuminterpret%" -T "COMPOSER=%composer%"-T "DISCNUMBER=%cdnumber%" -T "TOTALDISCS=%totalcds%" -T "TOTALTRACKS=%numtracks%" %source% -o %dest%

TOC of the extracted CD

Track | Start | Length | Start sector | End sector --------------------------------------------------------- 1 | 0:00.00 | 3:02.05 | 0 | 13654 2 | 3:02.05 | 1:03.32 | 13655 | 18411 3 | 4:05.37 | 2:02.07 | 18412 | 27568 4 | 6:07.44 | 2:30.41 | 27569 | 38859 5 | 8:38.10 | 1:20.10 | 38860 | 44869 6 | 9:58.20 | 2:38.24 | 44870 | 56743 7 | 12:36.44 | 1:39.38 | 56744 | 64206 8 | 14:16.07 | 1:04.01 | 64207 | 69007 9 | 15:20.08 | 1:34.68 | 69008 | 76125 10 | 16:55.01 | 1:21.21 | 76126 | 82221 11 | 18:16.22 | 1:35.01 | 82222 | 89347 12 | 19:51.23 | 1:11.03 | 89348 | 94675 13 | 21:02.26 | 0:48.25 | 94676 | 98300 14 | 21:50.51 | 0:44.64 | 98301 | 101664 15 | 22:35.40 | 0:58.57 | 101665 | 106071 16 | 23:34.22 | 1:41.50 | 106072 | 113696 17 | 25:15.72 | 0:41.11 | 113697 | 116782 18 | 25:57.08 | 1:15.18 | 116783 | 122425 19 | 27:12.26 | 1:03.02 | 122426 | 127152 20 | 28:15.28 | 1:35.29 | 127153 | 134306 21 | 29:50.57 | 1:02.10 | 134307 | 138966 22 | 30:52.67 | 2:18.64 | 138967 | 149380 23 | 33:11.56 | 0:57.47 | 149381 | 153702 24 | 34:09.28 | 1:08.12 | 153703 | 158814 25 | 35:17.40 | 1:04.24 | 158815 | 163638 26 | 36:21.64 | 2:35.36 | 163639 | 175299 27 | 38:57.25 | 1:37.46 | 175300 | 182620 28 | 40:34.71 | 3:00.43 | 182621 | 196163 29 | 43:35.39 | 0:54.45 | 196164 | 200258 30 | 44:30.09 | 0:41.29 | 200259 | 203362 31 | 45:11.38 | 2:51.56 | 203363 | 216243

Track 1

Filename C:\Music\01 - Randy Edelman - Main Titles.wav

Pre-gap length 0:00:02.00

Peak level 98.4 % Extraction speed 4.9 X Track quality 100.0 % Test CRC 8C746BF5 Copy CRC 8C746BF5 Track not present in AccurateRip database Copy OK

Track 2

Filename C:\Music\02 - Randy Edelman - Andy the Outsider.wav

Peak level 90.1 % Extraction speed 2.8 X Track quality 99.8 % Test CRC 7130127F Copy CRC 7130127F Track not present in AccurateRip database Copy OK

Track 3

Filename C:\Music\03 - Randy Edelman - Trusty Old Chief.wav

Peak level 98.2 % Extraction speed 4.8 X Track quality 100.0 % Test CRC CA3F97A6 Copy CRC CA3F97A6 Track not present in AccurateRip database Copy OK

Track 4

Filename C:\Music\04 - Randy Edelman - Fred Intrudes , Classroom.wav

Peak level 96.3 % Extraction speed 5.0 X Track quality 100.0 % Test CRC EE109D20 Copy CRC EE109D20 Track not present in AccurateRip database Copy OK

Track 5

Filename C:\Music\05 - Randy Edelman - Katherine Won’t Budge.wav

Peak level 98.2 % Extraction speed 4.2 X Track quality 100.0 % Test CRC 33DCBE71 Copy CRC 33DCBE71 Track not present in AccurateRip database Copy OK

Track 6

Filename C:\Music\06 - Randy Edelman - The Chance.wav

Peak level 98.3 % Extraction speed 5.0 X Track quality 100.0 % Test CRC 6DCBA1E4 Copy CRC 6DCBA1E4 Track not present in AccurateRip database Copy OK

Track 7

Filename C:\Music\07 - Randy Edelman - A Room With No Windows.wav

Peak level 84.0 % Extraction speed 4.5 X Track quality 100.0 % Test CRC 658DB3BC Copy CRC 658DB3BC Track not present in AccurateRip database Copy OK

Track 8

Filename C:\Music\08 - Randy Edelman - Countdown , Blast Off.wav

Peak level 99.3 % Extraction speed 3.9 X Track quality 100.0 % Test CRC 605F3642 Copy CRC 605F3642 Track not present in AccurateRip database Copy OK

Track 9

Filename C:\Music\09 - Randy Edelman - Katherine Finds Letter.wav

Peak level 96.8 % Extraction speed 3.5 X Track quality 99.8 % Test CRC 98440746 Copy CRC 98440746 Track not present in AccurateRip database Copy OK

Track 10

Filename C:\Music\10 - Randy Edelman - Century Plant.wav

Peak level 87.0 % Extraction speed 4.3 X Track quality 100.0 % Test CRC 80647345 Copy CRC 80647345 Track not present in AccurateRip database Copy OK

Track 11

Filename C:\Music\11 - Randy Edelman - Apollo 11 in the Sky.wav

Peak level 87.7 % Extraction speed 4.5 X Track quality 100.0 % Test CRC 55D4B98E Copy CRC 55D4B98E Track not present in AccurateRip database Copy OK

Track 12

Filename C:\Music\12 - Randy Edelman - Katherine’s First Try.wav

Peak level 98.2 % Extraction speed 3.0 X Track quality 99.8 % Test CRC E725C5A3 Copy CRC E725C5A3 Track not present in AccurateRip database Copy OK

Track 13

Filename C:\Music\13 - Randy Edelman - Ernest Joins Them.wav

Peak level 97.1 % Extraction speed 3.5 X Track quality 100.0 % Test CRC BD0E017F Copy CRC BD0E017F Track not present in AccurateRip database Copy OK

Track 14

Filename C:\Music\14 - Randy Edelman - Katherine Must Merge.wav

Peak level 98.7 % Extraction speed 3.2 X Track quality 100.0 % Test CRC 810DB62E Copy CRC 810DB62E Track not present in AccurateRip database Copy OK

Track 15

Filename C:\Music\15 - Randy Edelman - Photographs.wav

Peak level 77.8 % Extraction speed 2.7 X Track quality 99.8 % Test CRC 6CCC8342 Copy CRC 6CCC8342 Track not present in AccurateRip database Copy OK

Track 16

Filename C:\Music\16 - Randy Edelman - Ernest Gives Feather.wav

Peak level 98.2 % Extraction speed 4.5 X Track quality 100.0 % Test CRC B88661F6 Copy CRC B88661F6 Track not present in AccurateRip database Copy OK

Track 17

Filename C:\Music\17 - Randy Edelman - Newspaper.wav

Peak level 99.4 % Extraction speed 2.2 X Track quality 99.7 % Test CRC 75BDD109 Copy CRC 75BDD109 Track not present in AccurateRip database Copy OK

Track 18

Filename C:\Music\18 - Randy Edelman - Andy Takes the Wheel.wav

Peak level 92.7 % Extraction speed 4.1 X Track quality 100.0 % Test CRC 684A2A90 Copy CRC 684A2A90 Track not present in AccurateRip database Copy OK

Track 19

Filename C:\Music\19 - Randy Edelman - Snake Scares Lorraine , Escape From Bar.wav

Peak level 98.7 % Extraction speed 3.9 X Track quality 100.0 % Test CRC 173A26AE Copy CRC 173A26AE Track not present in AccurateRip database Copy OK

Track 20

Filename C:\Music\20 - Randy Edelman - Fly to Moon in Car , Andy Learns Truth.wav

Peak level 94.6 % Extraction speed 4.5 X Track quality 100.0 % Test CRC D6BD1C64 Copy CRC D6BD1C64 Track not present in AccurateRip database Copy OK

Track 21

Filename C:\Music\21 - Randy Edelman - Dad Has to Relax.wav

Peak level 98.5 % Extraction speed 3.8 X Track quality 100.0 % Test CRC 6A339748 Copy CRC 6A339748 Track not present in AccurateRip database Copy OK

Track 22

Filename C:\Music\22 - Randy Edelman - Arrival of Lorraine , The Law of Entropy , Katherine Drives By.wav

Peak level 98.9 % Extraction speed 4.9 X Track quality 100.0 % Test CRC 0A8EA7C5 Copy CRC 0A8EA7C5 Track not present in AccurateRip database Copy OK

Track 23

Filename C:\Music\23 - Randy Edelman - 9M5.wav

Peak level 95.0 % Extraction speed 3.7 X Track quality 100.0 % Test CRC E4F10B3A Copy CRC E4F10B3A Track not present in AccurateRip database Copy OK

Track 24

Filename C:\Music\24 - Randy Edelman - 10M1.wav

Peak level 98.7 % Extraction speed 3.9 X Track quality 100.0 % Test CRC 16C35D26 Copy CRC 16C35D26 Track not present in AccurateRip database Copy OK

Track 25

Filename C:\Music\25 - Randy Edelman - Cop Follows Washington.wav

Peak level 98.2 % Extraction speed 3.9 X Track quality 100.0 % Test CRC 9512AB19 Copy CRC 9512AB19 Track not present in AccurateRip database Copy OK

Track 26

Filename C:\Music\26 - Randy Edelman - First Chase.wav

Peak level 98.6 % Extraction speed 5.0 X Track quality 100.0 % Test CRC 3A982018 Copy CRC 3A982018 Track not present in AccurateRip database Copy OK

Track 27

Filename C:\Music\27 - Randy Edelman - Andy Beats the Car.wav

Peak level 92.6 % Extraction speed 3.5 X Track quality 99.8 % Test CRC 2D5D807F Copy CRC 2D5D807F Track not present in AccurateRip database Copy OK

Track 28

Filename C:\Music\28 - Randy Edelman - Andy’s Perfect Act , Crater Stunt.wav

Peak level 98.4 % Extraction speed 4.4 X Track quality 99.9 % Test CRC D5F1E896 Copy CRC D5F1E896 Track not present in AccurateRip database Copy OK

Track 29

Filename C:\Music\29 - Randy Edelman - Crater Reunion.wav

Peak level 98.2 % Extraction speed 3.6 X Track quality 100.0 % Test CRC B089DC3D Copy CRC B089DC3D Track not present in AccurateRip database Copy OK

Track 30

Filename C:\Music\30 - Randy Edelman - Do It for Katherine.wav

Peak level 98.2 % Extraction speed 3.2 X Track quality 100.0 % Test CRC CFE439C4 Copy CRC CFE439C4 Track not present in AccurateRip database Copy OK

Track 31

Filename C:\Music\31 - Randy Edelman - One Small Step , Escape to Canada.wav

Peak level 93.1 % Extraction speed 4.9 X Track quality 100.0 % Test CRC EA0EB416 Copy CRC EA0EB416 Track not present in AccurateRip database Copy OK

None of the tracks are present in the AccurateRip database

No errors occurred

End of status report

==== Log checksum 7A71F02D993B857CA318859C033B01782BC6235E94DB442C624E9E4CB35362B9 ====
REM GENRE SoundtrackREM DATE 1994REM DISCID BE0B431FREM COMMENT "ExactAudioCopy v1.1"PERFORMER "Randy Edelman"TITLE "Pontiac Moon"FILE "01 - Randy Edelman - Main Titles.wav" WAVE TRACK 01 AUDIO TITLE "Main Titles" PERFORMER "Randy Edelman" INDEX 01 00:00:00FILE "02 - Randy Edelman - Andy the Outsider.wav" WAVE TRACK 02 AUDIO TITLE "Andy the Outsider" PERFORMER "Randy Edelman" INDEX 01 00:00:00FILE "03 - Randy Edelman - Trusty Old Chief.wav" WAVE TRACK 03 AUDIO TITLE "Trusty Old Chief" PERFORMER "Randy Edelman" INDEX 01 00:00:00FILE "04 - Randy Edelman - Fred Intrudes , Classroom.wav" WAVE TRACK 04 AUDIO TITLE "Fred Intrudes / Classroom" PERFORMER "Randy Edelman" INDEX 01 00:00:00FILE "05 - Randy Edelman - Katherine Won’t Budge.wav" WAVE TRACK 05 AUDIO TITLE "Katherine Won’t Budge" PERFORMER "Randy Edelman" INDEX 01 00:00:00FILE "06 - Randy Edelman - The Chance.wav" WAVE TRACK 06 AUDIO TITLE "The Chance" PERFORMER "Randy Edelman" INDEX 01 00:00:00FILE "07 - Randy Edelman - A Room With No Windows.wav" WAVE TRACK 07 AUDIO TITLE "A Room With No Windows" PERFORMER "Randy Edelman" INDEX 01 00:00:00FILE "08 - Randy Edelman - Countdown , Blast Off.wav" WAVE TRACK 08 AUDIO TITLE "Countdown / Blast Off" PERFORMER "Randy Edelman" INDEX 01 00:00:00FILE "09 - Randy Edelman - Katherine Finds Letter.wav" WAVE TRACK 09 AUDIO TITLE "Katherine Finds Letter" PERFORMER "Randy Edelman" INDEX 01 00:00:00FILE "10 - Randy Edelman - Century Plant.wav" WAVE TRACK 10 AUDIO TITLE "Century Plant" PERFORMER "Randy Edelman" INDEX 01 00:00:00FILE "11 - Randy Edelman - Apollo 11 in the Sky.wav" WAVE TRACK 11 AUDIO TITLE "Apollo 11 in the Sky" PERFORMER "Randy Edelman" INDEX 01 00:00:00FILE "12 - Randy Edelman - Katherine’s First Try.wav" WAVE TRACK 12 AUDIO TITLE "Katherine’s First Try" PERFORMER "Randy Edelman" INDEX 01 00:00:00FILE "13 - Randy Edelman - Ernest Joins Them.wav" WAVE TRACK 13 AUDIO TITLE "Ernest Joins Them" PERFORMER "Randy Edelman" INDEX 01 00:00:00FILE "14 - Randy Edelman - Katherine Must Merge.wav" WAVE TRACK 14 AUDIO TITLE "Katherine Must Merge" PERFORMER "Randy Edelman" INDEX 01 00:00:00FILE "15 - Randy Edelman - Photographs.wav" WAVE TRACK 15 AUDIO TITLE "Photographs" PERFORMER "Randy Edelman" INDEX 01 00:00:00FILE "16 - Randy Edelman - Ernest Gives Feather.wav" WAVE TRACK 16 AUDIO TITLE "Ernest Gives Feather" PERFORMER "Randy Edelman" INDEX 01 00:00:00FILE "17 - Randy Edelman - Newspaper.wav" WAVE TRACK 17 AUDIO TITLE "Newspaper" PERFORMER "Randy Edelman" INDEX 01 00:00:00FILE "18 - Randy Edelman - Andy Takes the Wheel.wav" WAVE TRACK 18 AUDIO TITLE "Andy Takes the Wheel" PERFORMER "Randy Edelman" INDEX 01 00:00:00FILE "19 - Randy Edelman - Snake Scares Lorraine , Escape From Bar.wav" WAVE TRACK 19 AUDIO TITLE "Snake Scares Lorraine / Escape From Bar" PERFORMER "Randy Edelman" INDEX 01 00:00:00FILE "20 - Randy Edelman - Fly to Moon in Car , Andy Learns Truth.wav" WAVE TRACK 20 AUDIO TITLE "Fly to Moon in Car / Andy Learns Truth" PERFORMER "Randy Edelman" INDEX 01 00:00:00FILE "21 - Randy Edelman - Dad Has to Relax.wav" WAVE TRACK 21 AUDIO TITLE "Dad Has to Relax" PERFORMER "Randy Edelman" INDEX 01 00:00:00FILE "22 - Randy Edelman - Arrival of Lorraine , The Law of Entropy , Katherine Drives By.wav" WAVE TRACK 22 AUDIO TITLE "Arrival of Lorraine / The Law of Entropy / Katherine Drives By" PERFORMER "Randy Edelman" INDEX 01 00:00:00FILE "23 - Randy Edelman - 9M5.wav" WAVE TRACK 23 AUDIO TITLE "9M5" PERFORMER "Randy Edelman" INDEX 01 00:00:00FILE "24 - Randy Edelman - 10M1.wav" WAVE TRACK 24 AUDIO TITLE "10M1" PERFORMER "Randy Edelman" INDEX 01 00:00:00FILE "25 - Randy Edelman - Cop Follows Washington.wav" WAVE TRACK 25 AUDIO TITLE "Cop Follows Washington" PERFORMER "Randy Edelman" INDEX 01 00:00:00FILE "26 - Randy Edelman - First Chase.wav" WAVE TRACK 26 AUDIO TITLE "First Chase" PERFORMER "Randy Edelman" INDEX 01 00:00:00FILE "27 - Randy Edelman - Andy Beats the Car.wav" WAVE TRACK 27 AUDIO TITLE "Andy Beats the Car" PERFORMER "Randy Edelman" INDEX 01 00:00:00FILE "28 - Randy Edelman - Andy’s Perfect Act , Crater Stunt.wav" WAVE TRACK 28 AUDIO TITLE "Andy’s Perfect Act / Crater Stunt" PERFORMER "Randy Edelman" INDEX 01 00:00:00FILE "29 - Randy Edelman - Crater Reunion.wav" WAVE TRACK 29 AUDIO TITLE "Crater Reunion" PERFORMER "Randy Edelman" INDEX 01 00:00:00FILE "30 - Randy Edelman - Do It for Katherine.wav" WAVE TRACK 30 AUDIO TITLE "Do It for Katherine" PERFORMER "Randy Edelman" INDEX 01 00:00:00FILE "31 - Randy Edelman - One Small Step , Escape to Canada.wav" WAVE TRACK 31 AUDIO TITLE "One Small Step / Escape to Canada" PERFORMER "Randy Edelman" INDEX 01 00:00:00


Трекер:  [ 30-Авг-2015 10:00 ]

  

Скачать .torrent

Размер .torrent файла 10 KB


Размер: 360 MB
Хэш (hash) релиза: de6b9990d9792d27ea9bb0e1c925e686b66bfe23

Еще никто не оставлял запись к записи скачать торрент Луна Понтиак Pontiac Moon . Будь первым!

!Обратная связь