Скачать через торрент музыку Новокаин Novocaine бесплатно без регистрации torrent

Если у вас наблюдаются проблемы со скриншотами, переходом по ссылками, скачиванием торрентов - проблемы в блокировщике рекламы AdBlock. #хорошегоДня!


Статистика раздачи
Размер:  242 MB   |    Зарегистрирован:  2 года 3 месяца   |    .torrent скачан:  21 раз   |   
Раздают:  1  
   
Загрузка...
 
Автор Сообщение

Galfimbul

avatar Galfimbul


Новокаин / Novocaine
Жанр: Score
Композиторы: Steve Bartek, Danny Elfman
Год выпуска диска: 2001
Производитель диска: WEA Manufacturing Olyphant, US
Издатель (лейбл): TVT Soundtrax
Номер по каталогу: TVT 6850-2
Аудиокодек: FLAC (*.flac)
Тип рипа: tracks+.cue
Битрейт аудио: lossless
Продолжительность: 00:40:29
Источник: собственный рип
Наличие сканов в содержимом раздачи: да, 600 dpi
Ссылки: Кинопоиск | IMDB | Wikipedia | SoundtrackCollector
MP3: [url=...5057193](Score) Новокаин / Novocaine (by Steve Bartek & Danny Elfman) - 2001, MP3 (tracks) 320 kbps[/url]
Danny Elfman на трекере: [url=...786&nm=Danny+Elfman]lossless[/url] | [url=...785&nm=Danny+Elfman]lossy[/url]
01. Penny / Novocaine [0:04:37.01]
02. Mellow / Le Monde De Frank Sangster [0:05:17.39]
03. Danny Elfman / Main Titles [0:01:56.13]
04. Steve Bartek / Professional Question [0:03:15.59]
05. Danny Elfman / I Wish... [0:02:23.47]
06. Steve Bartek / Escape From Lance [0:01:58.39]
07. Charles Trenet / Menilmontant [0:01:39.30]
08. Steve Bartek / Tooth Decay [0:02:23.61]
09. Steve Bartek / Little Guys [0:01:36.12]
10. Steve Bartek / Threats And Lies [0:03:07.42]
11. Steve Bartek / The Difference [0:01:03.52]
12. Steve Bartek / The Lightbulb's Out [0:01:32.74]
13. Steve Bartek / The Escape Part 2 [0:01:43.18]
14. Steve Bartek / The Solution [0:04:33.47]
15. Charles Trenet / Menilmontant [0:03:17.67]
Exact Audio Copy V1.1 from 23. June 2015

EAC extraction logfile from 8. August 2015, 21:09

Various Artists / Novocaine

Used drive : PLEXTOR CD-R PX-230A Adapter: 1 ID: 3

Read mode : SecureUtilize accurate stream : YesDefeat audio cache : YesMake use of C2 pointers : No

Read offset correction : 738Overread into Lead-In and Lead-Out : NoFill up missing offset samples with silence : YesDelete leading and trailing silent blocks : NoNull samples used in CRC calculations : YesUsed interface : Native Win32 interface for Win NT & 2000Gap handling : Appended to previous track

Used output format : User Defined EncoderSelected bitrate : 1024 kBit/sQuality : HighAdd ID3 tag : NoCommand line compressor : C:\Program Files (x86)\Exact Audio Copy\FLAC\FLAC.EXEAdditional command line options : -6 -V -T "ARTIST=%artist%" -T "TITLE=%title%" -T "ALBUM=%albumtitle%" -T "DATE=%year%"-T "TRACKNUMBER=%tracknr%" -T "GENRE=%genre%" -T "COMMENT=%comment%" -T "ALBUMARTIST=%albuminterpret%" -T "COMPOSER=%composer%"-T "DISCNUMBER=%cdnumber%" -T "TOTALDISCS=%totalcds%" -T "TOTALTRACKS=%numtracks%" %source% -o %dest%

TOC of the extracted CD

Track | Start | Length | Start sector | End sector --------------------------------------------------------- 1 | 0:00.00 | 4:37.01 | 0 | 20775 2 | 4:37.01 | 5:17.39 | 20776 | 44589 3 | 9:54.40 | 1:56.13 | 44590 | 53302 4 | 11:50.53 | 3:15.59 | 53303 | 67986 5 | 15:06.37 | 2:23.47 | 67987 | 78758 6 | 17:30.09 | 1:58.39 | 78759 | 87647 7 | 19:28.48 | 1:39.30 | 87648 | 95102 8 | 21:08.03 | 2:23.61 | 95103 | 105888 9 | 23:31.64 | 1:36.12 | 105889 | 113100 10 | 25:08.01 | 3:07.42 | 113101 | 127167 11 | 28:15.43 | 1:03.52 | 127168 | 131944 12 | 29:19.20 | 1:32.74 | 131945 | 138918 13 | 30:52.19 | 1:43.18 | 138919 | 146661 14 | 32:35.37 | 4:33.47 | 146662 | 167183 15 | 37:09.09 | 3:17.67 | 167184 | 182025

Track 1

Filename C:\Music\01 - Penny - Novocaine.wav

Pre-gap length 0:00:02.00

Peak level 89.0 % Extraction speed 5.4 X Track quality 100.0 % Test CRC CA9AD6EE Copy CRC CA9AD6EE Track not present in AccurateRip database Copy OK

Track 2

Filename C:\Music\02 - Mellow - Le Monde De Frank Sangster.wav

Pre-gap length 0:00:01.10

Peak level 100.0 % Extraction speed 5.7 X Track quality 100.0 % Test CRC 4BF8E5D6 Copy CRC 4BF8E5D6 Track not present in AccurateRip database Copy OK

Track 3

Filename C:\Music\03 - Danny Elfman - Main Titles.wav

Pre-gap length 0:00:02.44

Peak level 93.3 % Extraction speed 3.8 X Track quality 99.9 % Test CRC AF023060 Copy CRC AF023060 Track not present in AccurateRip database Copy OK

Track 4

Filename C:\Music\04 - Steve Bartek - Professional Question.wav

Pre-gap length 0:00:01.43

Peak level 98.7 % Extraction speed 5.3 X Track quality 100.0 % Test CRC 844EDCE2 Copy CRC 844EDCE2 Track not present in AccurateRip database Copy OK

Track 5

Filename C:\Music\05 - Danny Elfman - I Wish....wav

Pre-gap length 0:00:01.44

Peak level 45.9 % Extraction speed 5.0 X Track quality 100.0 % Test CRC 9F25EB95 Copy CRC 9F25EB95 Track not present in AccurateRip database Copy OK

Track 6

Filename C:\Music\06 - Steve Bartek - Escape From Lance.wav

Pre-gap length 0:00:01.43

Peak level 98.8 % Extraction speed 3.8 X Track quality 99.9 % Test CRC 04D1A146 Copy CRC 04D1A146 Track not present in AccurateRip database Copy OK

Track 7

Filename C:\Music\07 - Charles Trenet - Menilmontant.wav

Pre-gap length 0:00:01.44

Peak level 50.3 % Extraction speed 4.5 X Track quality 100.0 % Test CRC CB08C6C3 Copy CRC CB08C6C3 Track not present in AccurateRip database Copy OK

Track 8

Filename C:\Music\08 - Steve Bartek - Tooth Decay.wav

Pre-gap length 0:00:01.44

Peak level 98.8 % Extraction speed 5.0 X Track quality 100.0 % Test CRC A5E337C9 Copy CRC A5E337C9 Track not present in AccurateRip database Copy OK

Track 9

Filename C:\Music\09 - Steve Bartek - Little Guys.wav

Pre-gap length 0:00:01.43

Peak level 69.8 % Extraction speed 4.5 X Track quality 100.0 % Test CRC 13CB8270 Copy CRC 13CB8270 Track not present in AccurateRip database Copy OK

Track 10

Filename C:\Music\10 - Steve Bartek - Threats And Lies.wav

Pre-gap length 0:00:01.44

Peak level 98.8 % Extraction speed 4.4 X Track quality 99.9 % Test CRC A365581D Copy CRC A365581D Track not present in AccurateRip database Copy OK

Track 11

Filename C:\Music\11 - Steve Bartek - The Difference.wav

Pre-gap length 0:00:01.44

Peak level 98.8 % Extraction speed 3.9 X Track quality 100.0 % Test CRC 2AD59BFC Copy CRC 2AD59BFC Track not present in AccurateRip database Copy OK

Track 12

Filename C:\Music\12 - Steve Bartek - The Lightbulb's Out.wav

Pre-gap length 0:00:01.43

Peak level 98.8 % Extraction speed 4.4 X Track quality 100.0 % Test CRC 90D2AD52 Copy CRC 90D2AD52 Track not present in AccurateRip database Copy OK

Track 13

Filename C:\Music\13 - Steve Bartek - The Escape Part 2.wav

Pre-gap length 0:00:01.44

Peak level 98.8 % Extraction speed 3.6 X Track quality 99.8 % Test CRC 4CD80EA2 Copy CRC 4CD80EA2 Track not present in AccurateRip database Copy OK

Track 14

Filename C:\Music\14 - Steve Bartek - The Solution.wav

Pre-gap length 0:00:01.44

Peak level 98.8 % Extraction speed 5.5 X Track quality 100.0 % Test CRC 739D0136 Copy CRC 739D0136 Track not present in AccurateRip database Copy OK

Track 15

Filename C:\Music\15 - Charles Trenet - Menilmontant.wav

Pre-gap length 0:00:02.45

Peak level 88.9 % Extraction speed 4.3 X Track quality 99.9 % Test CRC BE697894 Copy CRC BE697894 Track not present in AccurateRip database Copy OK

None of the tracks are present in the AccurateRip database

No errors occurred

End of status report

==== Log checksum 6F36BC1712D9436E5D91AC7DF548F3F6A81B132012299089BDC7C2001594B8E8 ====
REM GENRE SoundtrackREM DATE 2001REM DISCID C4097B0FREM COMMENT "ExactAudioCopy v1.1"PERFORMER "Various Artists"TITLE "Novocaine"FILE "01 - Penny - Novocaine.wav" WAVE TRACK 01 AUDIO TITLE "Novocaine" PERFORMER "Penny" INDEX 01 00:00:00 TRACK 02 AUDIO TITLE "Le Monde De Frank Sangster" PERFORMER "Mellow" INDEX 00 04:35:66FILE "02 - Mellow - Le Monde De Frank Sangster.wav" WAVE INDEX 01 00:00:00 TRACK 03 AUDIO TITLE "Main Titles" PERFORMER "Danny Elfman" INDEX 00 05:14:70FILE "03 - Danny Elfman - Main Titles.wav" WAVE INDEX 01 00:00:00 TRACK 04 AUDIO TITLE "Professional Question" PERFORMER "Steve Bartek" INDEX 00 01:54:45FILE "04 - Steve Bartek - Professional Question.wav" WAVE INDEX 01 00:00:00 TRACK 05 AUDIO TITLE "I Wish..." PERFORMER "Danny Elfman" INDEX 00 03:14:15FILE "05 - Danny Elfman - I Wish....wav" WAVE INDEX 01 00:00:00 TRACK 06 AUDIO TITLE "Escape From Lance" PERFORMER "Steve Bartek" INDEX 00 02:22:04FILE "06 - Steve Bartek - Escape From Lance.wav" WAVE INDEX 01 00:00:00 TRACK 07 AUDIO TITLE "Menilmontant" PERFORMER "Charles Trenet" INDEX 00 01:56:70FILE "07 - Charles Trenet - Menilmontant.wav" WAVE INDEX 01 00:00:00 TRACK 08 AUDIO TITLE "Tooth Decay" PERFORMER "Steve Bartek" INDEX 00 01:37:61FILE "08 - Steve Bartek - Tooth Decay.wav" WAVE INDEX 01 00:00:00 TRACK 09 AUDIO TITLE "Little Guys" PERFORMER "Steve Bartek" INDEX 00 02:22:18FILE "09 - Steve Bartek - Little Guys.wav" WAVE INDEX 01 00:00:00 TRACK 10 AUDIO TITLE "Threats And Lies" PERFORMER "Steve Bartek" INDEX 00 01:34:43FILE "10 - Steve Bartek - Threats And Lies.wav" WAVE INDEX 01 00:00:00 TRACK 11 AUDIO TITLE "The Difference" PERFORMER "Steve Bartek" INDEX 00 03:05:73FILE "11 - Steve Bartek - The Difference.wav" WAVE INDEX 01 00:00:00 TRACK 12 AUDIO TITLE "The Lightbulb's Out" PERFORMER "Steve Bartek" INDEX 00 01:02:09FILE "12 - Steve Bartek - The Lightbulb's Out.wav" WAVE INDEX 01 00:00:00 TRACK 13 AUDIO TITLE "The Escape Part 2" PERFORMER "Steve Bartek" INDEX 00 01:31:30FILE "13 - Steve Bartek - The Escape Part 2.wav" WAVE INDEX 01 00:00:00 TRACK 14 AUDIO TITLE "The Solution" PERFORMER "Steve Bartek" INDEX 00 01:41:49FILE "14 - Steve Bartek - The Solution.wav" WAVE INDEX 01 00:00:00 TRACK 15 AUDIO TITLE "Menilmontant" PERFORMER "Charles Trenet" INDEX 00 04:31:02FILE "15 - Charles Trenet - Menilmontant.wav" WAVE INDEX 01 00:00:00


Трекер:  [ 30-Авг-2015 10:00 ]

  

Скачать .torrent

Размер .torrent файла 6 KB


Размер: 242 MB
Хэш (hash) релиза: fd87795aeb6e6e6078abb0933c17b67c53b4df4d

Еще никто не оставлял запись к записи скачать торрент Новокаин Novocaine . Будь первым!

!Обратная связь