Скачать через торрент музыку бесплатно без регистрации torrent

Если у вас наблюдаются проблемы со скриншотами, переходом по ссылками, скачиванием торрентов - проблемы в блокировщике рекламы AdBlock. #хорошегоДня!


Статистика раздачи
Размер:  875 MB   |    Зарегистрирован:  2 года 3 месяца   |    .torrent скачан:  26 раз   |   
Раздают:  1  
   
Загрузка...
 
Автор Сообщение

Galfimbul

avatar Galfimbul


Various Artists - Disney's Greatest Vol. 1-3


Носитель: CD
Жанр: Soundtrack
Композитор: Various Artists
Год выпуска дисков: 2001-2002
Страна-производитель дисков: US
Издатель (лейбл): Walt Disney Records
Аудиокодек: FLAC (*.flac)
Тип рипа: tracks+.cue
Битрейт аудио: lossless
Продолжительность: 03:10:09
Источник: what.cd
Источник по discogs: http://www.discogs.com/label/706934-Disneys-Greatest
Наличие обложки в содержимом раздачи: да (только фронтальная)
[spoiler="2001 - Disney's Greatest, Volume 1 [60693-7]"]
Продолжительность: 01:00:01
Треклист:

01. Phil Collins - Strangers Like Me [Disney's Tarzan (1999)] [3:01]
02. Lea Salonga - Reflection [Mulan (1998)] [2:27]
03. Susan Egan; Cheryl Freeman; LaChanze; Vaneese Thomas; Lillias White - I Wont Say (I'm in Love) [Hercules (1997)] [2:20]
04. Tony Jay; Tom Hulce - Out There [the Hunchback of Notre Dame (1996)] [4:26]
05. Randy Newman - You've Got a Friend in Me [Toy Story (1995)] [2:05]
06. Judy Kuhn - Just Around the Riverbend [Pocahontas (1995)] [2:30]
07. Carmen Twillie; Lebo M. - Circle of Life [The Lion King (1994)] [3:59]
08. Brad Kane; Lea Salonga - A Whole New World [Aladdin (19)92] [2:41]
09. Angela Lansbury - Beauty and the Beast [Beauty and the Beast (1991)] [2:45]
10. Samuel E. Wright - Kiss the Girl [the Little Mermaid (1989)] [2:44]
11. Louis Prima; Phil Harris;Bruce Reitherman - I Wan'na Be Like You (The Monkey Song) [The Jungle Book (1967)] [4:39]
12. Julie Andrews; Dick Van Dyke; Pearlie Chorus - Supercalifragilisticexpialidocious [Mary Poppins (1964)] [2:03]
13. Bill Lee - Cruella de Vil [101 Dalmatians (1961)] [4:47]
14. Mary Costa; Bill Shirley; Chorus - Once Upon a Dream [Sleeping Beauty (1959)] [2:47]
15. Verna Felton - Bibbidi-Bobbidi-Boo (The Magic Song) [Cinderella (1950)] [1:18]
16. Bobby Driscoll; Kathryn Beaumont; Paul Collins; Tommy Luske; The Jud Conlon Chorus - You Can Fly! You Can Fly! [Peter Pan (1953)] [4:25]
17. James Baskett - Zip-A-Dee-Doo-Dah [Song of the South (1946)] [2:20]
18. The Dwarf Chorus - Heigh-Ho [Snow White (1937)] [2:49]
19. George Givot; Bill Thompson; Disney Studio Chorus - Bella Notte [Lady and the Tramp (1955)] [2:41]
20. Cliff Edwards - When You Wish Upon a Star [Pinocchio (1940)] [3:15]
Exact Audio Copy V1.0 beta 3 from 29. August 2011

EAC extraction logfile from 11. November 2013, 12:20

Various Artists / Disney's Greatest Volume 1

Used drive : HL-DT-STDVD+-RW GH50N Adapter: 0 ID: 0

Read mode : SecureUtilize accurate stream : YesDefeat audio cache : YesMake use of C2 pointers : No

Read offset correction : 667Overread into Lead-In and Lead-Out : NoFill up missing offset samples with silence : YesDelete leading and trailing silent blocks : NoNull samples used in CRC calculations : YesUsed interface : Native Win32 interface for Win NT & 2000Gap handling : Appended to previous track

Used output format : User Defined EncoderSelected bitrate : 1024 kBit/sQuality : HighAdd ID3 tag : NoCommand line compressor : C:\Program Files (x86)\Exact Audio Copy\FLAC\FLAC.EXEAdditional command line options : -8 -V -T "ARTIST=%artist%" -T "TITLE=%title%" -T "ALBUM=%albumtitle%" -T "DATE=%year%" -T "TRACKNUMBER=%tracknr%" -T "GENRE=%genre%" -T "PERFORMER=%albuminterpret%" -T "COMPOSER=%composer%" %haslyrics%--tag-from-file=LYRICS="%lyricsfile%"%haslyrics% -T "ALBUMARTIST=%albumartist%" -T "DISCNUMBER=%cdnumber%" -T "TOTALDISCS=%totalcds%" -T "TOTALTRACKS=%numtracks%" -T "COMMENT=%comment%" %source% -o %dest%

TOC of the extracted CD

Track | Start | Length | Start sector | End sector --------------------------------------------------------- 1 | 0:00.00 | 3:00.40 | 0 | 13539 2 | 3:00.40 | 2:26.63 | 13540 | 24552 3 | 5:27.28 | 2:20.07 | 24553 | 35059 4 | 7:47.35 | 4:25.63 | 35060 | 54997 5 | 12:13.23 | 2:04.42 | 54998 | 64339 6 | 14:17.65 | 2:30.03 | 64340 | 75592 7 | 16:47.68 | 3:59.05 | 75593 | 93522 8 | 20:46.73 | 2:40.68 | 93523 | 105590 9 | 23:27.66 | 2:45.37 | 105591 | 118002 10 | 26:13.28 | 2:43.50 | 118003 | 130277 11 | 28:57.03 | 4:39.32 | 130278 | 151234 12 | 33:36.35 | 2:03.33 | 151235 | 160492 13 | 35:39.68 | 4:47.07 | 160493 | 182024 14 | 40:27.00 | 2:47.01 | 182025 | 194550 15 | 43:14.01 | 1:17.70 | 194551 | 200395 16 | 44:31.71 | 4:25.31 | 200396 | 220301 17 | 48:57.27 | 2:19.42 | 220302 | 230768 18 | 51:16.69 | 2:48.43 | 230769 | 243411 19 | 54:05.37 | 2:40.52 | 243412 | 255463 20 | 56:46.14 | 3:15.07 | 255464 | 270095

Track 1

Filename F:\CDRips\Various - Disney's Greatest Volume 1 (2001) [FLAC]\01 - Phil Collins - Strangers Like Me [Disney's Tarzan (1999)].wav

Pre-gap length 0:00:02.00

Peak level 69.9 % Extraction speed 1.7 X Track quality 100.0 % Test CRC 0B11AB38 Copy CRC 0B11AB38 Accurately ripped (confidence 9) [4B2CF5E4] (AR v2) Copy OK

Track 2

Filename F:\CDRips\Various - Disney's Greatest Volume 1 (2001) [FLAC]\02 - Lea Salonga - Reflection [Mulan (1998)].wav

Peak level 77.4 % Extraction speed 1.8 X Track quality 100.0 % Test CRC 47095BA4 Copy CRC 47095BA4 Accurately ripped (confidence 10) [A8D06072] (AR v2) Copy OK

Track 3

Filename F:\CDRips\Various - Disney's Greatest Volume 1 (2001) [FLAC]\03 - Susan Egan; Cheryl Freeman; LaChanze; Vaneese Thomas; Lillias White - I Wont Say (I'm in Love) [Hercules (1997)].wav

Peak level 100.0 % Extraction speed 1.5 X Track quality 99.9 % Test CRC A5016894 Copy CRC A5016894 Accurately ripped (confidence 10) [4AFBDFE1] (AR v2) Copy OK

Track 4

Filename F:\CDRips\Various - Disney's Greatest Volume 1 (2001) [FLAC]\04 - Tony Jay; Tom Hulce - Out There [the Hunchback of Notre Dame (1996)].wav

Peak level 100.0 % Extraction speed 2.3 X Track quality 100.0 % Test CRC 10CED790 Copy CRC 10CED790 Accurately ripped (confidence 10) [EE4A680E] (AR v2) Copy OK

Track 5

Filename F:\CDRips\Various - Disney's Greatest Volume 1 (2001) [FLAC]\05 - Randy Newman - You've Got a Friend in Me [Toy Story (1995)].wav

Peak level 79.4 % Extraction speed 2.1 X Track quality 100.0 % Test CRC 99B285D3 Copy CRC 99B285D3 Accurately ripped (confidence 10) [D41066FA] (AR v2) Copy OK

Track 6

Filename F:\CDRips\Various - Disney's Greatest Volume 1 (2001) [FLAC]\06 - Judy Kuhn - Just Around the Riverbend [Pocahontas (1995)].wav

Peak level 96.4 % Extraction speed 1.9 X Track quality 99.9 % Test CRC 98D85B7C Copy CRC 98D85B7C Accurately ripped (confidence 9) [7AF40D80] (AR v2) Copy OK

Track 7

Filename F:\CDRips\Various - Disney's Greatest Volume 1 (2001) [FLAC]\07 - Carmen Twillie; Lebo M. - Circle of Life [The Lion King (1994)].wav

Peak level 95.8 % Extraction speed 2.7 X Track quality 100.0 % Test CRC 43EE84FB Copy CRC 43EE84FB Accurately ripped (confidence 9) [A14A88B1] (AR v2) Copy OK

Track 8

Filename F:\CDRips\Various - Disney's Greatest Volume 1 (2001) [FLAC]\08 - Brad Kane; Lea Salonga - A Whole New World [Aladdin (19)92].wav

Peak level 77.3 % Extraction speed 2.5 X Track quality 100.0 % Test CRC B76285B9 Copy CRC B76285B9 Accurately ripped (confidence 10) [159BDB04] (AR v2) Copy OK

Track 9

Filename F:\CDRips\Various - Disney's Greatest Volume 1 (2001) [FLAC]\09 - Angela Lansbury - Beauty and the Beast [Beauty and the Beast (1991)].wav

Peak level 63.7 % Extraction speed 2.7 X Track quality 100.0 % Test CRC CB600B96 Copy CRC CB600B96 Accurately ripped (confidence 10) [AE23962A] (AR v2) Copy OK

Track 10

Filename F:\CDRips\Various - Disney's Greatest Volume 1 (2001) [FLAC]\10 - Samuel E. Wright - Kiss the Girl [the Little Mermaid (1989)].wav

Peak level 88.0 % Extraction speed 2.3 X Track quality 99.9 % Test CRC 00AB9E27 Copy CRC 00AB9E27 Accurately ripped (confidence 10) [B84CBF85] (AR v2) Copy OK

Track 11

Filename F:\CDRips\Various - Disney's Greatest Volume 1 (2001) [FLAC]\11 - Louis Prima; Phil Harris;Bruce Reitherman - I Wan'na Be Like You (The Monkey Song) [The Jungle Book (1967)].wav

Peak level 99.9 % Extraction speed 3.1 X Track quality 100.0 % Test CRC A4153463 Copy CRC A4153463 Accurately ripped (confidence 10) [28E7A631] (AR v2) Copy OK

Track 12

Filename F:\CDRips\Various - Disney's Greatest Volume 1 (2001) [FLAC]\12 - Julie Andrews; Dick Van Dyke; Pearlie Chorus - Supercalifragilisticexpialidocious [Mary Poppins (1964)].wav

Peak level 100.0 % Extraction speed 2.7 X Track quality 100.0 % Test CRC BB8BBF76 Copy CRC BB8BBF76 Accurately ripped (confidence 10) [EA860BCF] (AR v2) Copy OK

Track 13

Filename F:\CDRips\Various - Disney's Greatest Volume 1 (2001) [FLAC]\13 - Bill Lee - Cruella de Vil [101 Dalmatians (1961)].wav

Peak level 75.1 % Extraction speed 3.3 X Track quality 100.0 % Test CRC 3240D7C1 Copy CRC 3240D7C1 Accurately ripped (confidence 8) [82D123DA] (AR v2) Copy OK

Track 14

Filename F:\CDRips\Various - Disney's Greatest Volume 1 (2001) [FLAC]\14 - Mary Costa; Bill Shirley; Chorus - Once Upon a Dream [Sleeping Beauty (1959)].wav

Peak level 87.5 % Extraction speed 3.2 X Track quality 100.0 % Test CRC 54FC0E6C Copy CRC 54FC0E6C Accurately ripped (confidence 9) [934A3DC0] (AR v2) Copy OK

Track 15

Filename F:\CDRips\Various - Disney's Greatest Volume 1 (2001) [FLAC]\15 - Verna Felton - Bibbidi-Bobbidi-Boo (The Magic Song) [Cinderella (1950)].wav

Peak level 99.5 % Extraction speed 2.6 X Track quality 100.0 % Test CRC 55C38900 Copy CRC 55C38900 Accurately ripped (confidence 10) [963C5FB5] (AR v2) Copy OK

Track 16

Filename F:\CDRips\Various - Disney's Greatest Volume 1 (2001) [FLAC]\16 - Bobby Driscoll; Kathryn Beaumont; Paul Collins; Tommy Luske; The Jud Conlon Chorus - You Can Fly! You Can Fly! [Peter Pan (1953)].wav

Peak level 92.1 % Extraction speed 3.6 X Track quality 100.0 % Test CRC 9FB47BF8 Copy CRC 9FB47BF8 Accurately ripped (confidence 8) [B955772A] (AR v2) Copy OK

Track 17

Filename F:\CDRips\Various - Disney's Greatest Volume 1 (2001) [FLAC]\17 - James Baskett - Zip-A-Dee-Doo-Dah [Song of the South (1946)].wav

Peak level 79.4 % Extraction speed 3.3 X Track quality 100.0 % Test CRC B39315F1 Copy CRC B39315F1 Accurately ripped (confidence 10) [EF9A528A] (AR v2) Copy OK

Track 18

Filename F:\CDRips\Various - Disney's Greatest Volume 1 (2001) [FLAC]\18 - The Dwarf Chorus - Heigh-Ho [Snow White (1937)].wav

Peak level 98.0 % Extraction speed 3.4 X Track quality 100.0 % Test CRC 46129E12 Copy CRC 46129E12 Accurately ripped (confidence 10) [AD4EB440] (AR v2) Copy OK

Track 19

Filename F:\CDRips\Various - Disney's Greatest Volume 1 (2001) [FLAC]\19 - George Givot; Bill Thompson; Disney Studio Chorus - Bella Notte [Lady and the Tramp (1955)].wav

Peak level 82.1 % Extraction speed 2.9 X Track quality 99.9 % Test CRC 6DF5BE82 Copy CRC 6DF5BE82 Accurately ripped (confidence 10) [20C80D4A] (AR v2) Copy OK

Track 20

Filename F:\CDRips\Various - Disney's Greatest Volume 1 (2001) [FLAC]\20 - Cliff Edwards - When You Wish Upon a Star [Pinocchio (1940)].wav

Peak level 88.7 % Extraction speed 3.8 X Track quality 100.0 % Test CRC C4622A7D Copy CRC C4622A7D Accurately ripped (confidence 10) [89E820D6] (AR v2) Copy OK

All tracks accurately ripped

No errors occurred

End of status report

==== Log checksum 4911D0A30AAD6BBC8C9F0D7372488A7D51DD5E036461FE83B67D48EB6C7569B6 ====
REM GENRE SoundtrackREM DATE 2001REM DISCID 350E1114REM COMMENT "ExactAudioCopy v1.0b3"PERFORMER "Various Artists"TITLE "Disney's Greatest Volume 1"FILE "01 - Phil Collins - Strangers Like Me [Disney's Tarzan (1999)].wav" WAVE TRACK 01 AUDIO TITLE "Strangers Like Me [Disney's Tarzan (1999)]" PERFORMER "Phil Collins" FLAGS DCP INDEX 01 00:00:00FILE "02 - Lea Salonga - Reflection [Mulan (1998)].wav" WAVE TRACK 02 AUDIO TITLE "Reflection [Mulan (1998)]" PERFORMER "Lea Salonga" FLAGS DCP INDEX 01 00:00:00FILE "03 - Susan Egan; Cheryl Freeman; LaChanze; Vaneese Thomas; Lillias White - I Wont Say (I'm in Love) [Hercules (1997)].wav" WAVE TRACK 03 AUDIO TITLE "I Wont Say (I'm in Love) [Hercules (1997)]" PERFORMER "Susan Egan; Cheryl Freeman; LaChanze; Vaneese Thomas; Lillias White" FLAGS DCP INDEX 01 00:00:00FILE "04 - Tony Jay; Tom Hulce - Out There [the Hunchback of Notre Dame (1996)].wav" WAVE TRACK 04 AUDIO TITLE "Out There [the Hunchback of Notre Dame (1996)]" PERFORMER "Tony Jay; Tom Hulce" FLAGS DCP INDEX 01 00:00:00FILE "05 - Randy Newman - You've Got a Friend in Me [Toy Story (1995)].wav" WAVE TRACK 05 AUDIO TITLE "You've Got a Friend in Me [Toy Story (1995)]" PERFORMER "Randy Newman" FLAGS DCP INDEX 01 00:00:00FILE "06 - Judy Kuhn - Just Around the Riverbend [Pocahontas (1995)].wav" WAVE TRACK 06 AUDIO TITLE "Just Around the Riverbend [Pocahontas (1995)]" PERFORMER "Judy Kuhn" FLAGS DCP INDEX 01 00:00:00FILE "07 - Carmen Twillie; Lebo M. - Circle of Life [The Lion King (1994)].wav" WAVE TRACK 07 AUDIO TITLE "Circle of Life [The Lion King (1994)]" PERFORMER "Carmen Twillie; Lebo M." FLAGS DCP INDEX 01 00:00:00FILE "08 - Brad Kane; Lea Salonga - A Whole New World [Aladdin (19)92].wav" WAVE TRACK 08 AUDIO TITLE "A Whole New World [Aladdin (19)92]" PERFORMER "Brad Kane; Lea Salonga" FLAGS DCP INDEX 01 00:00:00FILE "09 - Angela Lansbury - Beauty and the Beast [Beauty and the Beast (1991)].wav" WAVE TRACK 09 AUDIO TITLE "Beauty and the Beast [Beauty and the Beast (1991)]" PERFORMER "Angela Lansbury" FLAGS DCP INDEX 01 00:00:00FILE "10 - Samuel E. Wright - Kiss the Girl [the Little Mermaid (1989)].wav" WAVE TRACK 10 AUDIO TITLE "Kiss the Girl [the Little Mermaid (1989)]" PERFORMER "Samuel E. Wright" FLAGS DCP INDEX 01 00:00:00FILE "11 - Louis Prima; Phil Harris;Bruce Reitherman - I Wan'na Be Like You (The Monkey Song) [The Jungle Book (1967)].wav" WAVE TRACK 11 AUDIO TITLE "I Wan'na Be Like You (The Monkey Song) [The Jungle Book (1967)]" PERFORMER "Louis Prima; Phil Harris;Bruce Reitherman" FLAGS DCP INDEX 01 00:00:00FILE "12 - Julie Andrews; Dick Van Dyke; Pearlie Chorus - Supercalifragilisticexpialidocious [Mary Poppins (1964)].wav" WAVE TRACK 12 AUDIO TITLE "Supercalifragilisticexpialidocious [Mary Poppins (1964)]" PERFORMER "Julie Andrews; Dick Van Dyke; Pearlie Chorus" FLAGS DCP INDEX 01 00:00:00FILE "13 - Bill Lee - Cruella de Vil [101 Dalmatians (1961)].wav" WAVE TRACK 13 AUDIO TITLE "Cruella de Vil [101 Dalmatians (1961)]" PERFORMER "Bill Lee" FLAGS DCP INDEX 01 00:00:00FILE "14 - Mary Costa; Bill Shirley; Chorus - Once Upon a Dream [Sleeping Beauty (1959)].wav" WAVE TRACK 14 AUDIO TITLE "Once Upon a Dream [Sleeping Beauty (1959)]" PERFORMER "Mary Costa; Bill Shirley; Chorus" FLAGS DCP INDEX 01 00:00:00FILE "15 - Verna Felton - Bibbidi-Bobbidi-Boo (The Magic Song) [Cinderella (1950)].wav" WAVE TRACK 15 AUDIO TITLE "Bibbidi-Bobbidi-Boo (The Magic Song) [Cinderella (1950)]" PERFORMER "Verna Felton" FLAGS DCP INDEX 01 00:00:00FILE "16 - Bobby Driscoll; Kathryn Beaumont; Paul Collins; Tommy Luske; The Jud Conlon Chorus - You Can Fly! You Can Fly! [Peter Pan (1953)].wav" WAVE TRACK 16 AUDIO TITLE "You Can Fly! You Can Fly! [Peter Pan (1953)]" PERFORMER "Bobby Driscoll; Kathryn Beaumont; Paul Collins; Tommy Luske; The Jud Conlo..." FLAGS DCP INDEX 01 00:00:00FILE "17 - James Baskett - Zip-A-Dee-Doo-Dah [Song of the South (1946)].wav" WAVE TRACK 17 AUDIO TITLE "Zip-A-Dee-Doo-Dah [Song of the South (1946)]" PERFORMER "James Baskett" FLAGS DCP INDEX 01 00:00:00FILE "18 - The Dwarf Chorus - Heigh-Ho [Snow White (1937)].wav" WAVE TRACK 18 AUDIO TITLE "Heigh-Ho [Snow White (1937)]" PERFORMER "The Dwarf Chorus" FLAGS DCP INDEX 01 00:00:00FILE "19 - George Givot; Bill Thompson; Disney Studio Chorus - Bella Notte [Lady and the Tramp (1955)].wav" WAVE TRACK 19 AUDIO TITLE "Bella Notte [Lady and the Tramp (1955)]" PERFORMER "George Givot; Bill Thompson; Disney Studio Chorus" FLAGS DCP INDEX 01 00:00:00FILE "20 - Cliff Edwards - When You Wish Upon a Star [Pinocchio (1940)].wav" WAVE TRACK 20 AUDIO TITLE "When You Wish Upon a Star [Pinocchio (1940)]" PERFORMER "Cliff Edwards" FLAGS DCP INDEX 01 00:00:00
[/spoiler]
[spoiler="2001 - Disney's Greatest, Volume 2 [60694-7]"]
Продолжительность: 01:05:04
Треклист:

01. Tarzan (1999) - You'll Be In My Heart [1:38]
02. Mulan (1998) - I'll Make A Man Out Of You [3:22]
03. Hercules (1997) - Go The Distance [3:14]
04. The Hunchback Of Notre Dame (1996) - Bells Of Notre Dame [6:26]
05. Pocahontas (1995) - Colors Of The Wind [3:35]
06. The Lion King (1994) - Hakuna Matata [3:34]
07. Beauty And The Beast (1991) - Be Our Guest [3:45]
08. The Little Mermaid (1989) - Under The Sea [3:15]
09. Winnie-The-Pooh And The Honey Tree (1966) - Winnie-The-Pooh [2:19]
10. The Jungle Book (1967) - Bare Necessities [4:52]
11. Mary Poppins (1964) - Chim Chim Cher-Ee [2:47]
12. Cinderella (1950) - A Dream Is A Wish Your Heart Makes [4:36]
13. Mickey Mouse Club (1955-59) - Mickey Mouse March [2:41]
14. Davy Crockett (1954-55) - The Ballad Of Davy Crockett [2:58]
15. New York World's Fair (1964) - It's A Small World [3:03]
16. Lady And The Tramp (1955) - He's A Tramp [2:27]
17. Peter Pan (1953) - The Second Star To The Right [2:21]
18. Bambi (1942) - Little April Shower [3:55]
19. Pinocchio (1940) - I've Got No Strings [2:23]
20. Snow White (1937) - Some Day My Prince Will Come [1:54]
Exact Audio Copy V0.99 prebeta 4 from 23. January 2008

EAC extraction logfile from 23. July 2010, 17:27

Various / Disney's Greatest Volume 2

Used drive : TSSTcorpCDDVDW TS-H653N Adapter: 2 ID: 2

Read mode : SecureUtilize accurate stream : YesDefeat audio cache : YesMake use of C2 pointers : No

Read offset correction : 6Overread into Lead-In and Lead-Out : NoFill up missing offset samples with silence : YesDelete leading and trailing silent blocks : NoNull samples used in CRC calculations : YesUsed interface : Installed external ASPI interfaceGap handling : Appended to previous track

Used output format : User Defined EncoderSelected bitrate : 320 kBit/sQuality : HighAdd ID3 tag : NoCommand line compressor : C:\Program Files\Exact Audio Copy\FLAC\FLAC.EXEAdditional command line options : -V -8 -T "artist=%a" -T "title=%t" -T "album=%g" -T "date=%y" -T "tracknumber=%n" -T "genre=%m" %s

TOC of the extracted CD

Track | Start | Length | Start sector | End sector --------------------------------------------------------- 1 | 0:00.00 | 1:37.49 | 0 | 7323 2 | 1:37.49 | 3:21.72 | 7324 | 22470 3 | 4:59.46 | 3:14.12 | 22471 | 37032 4 | 8:13.58 | 6:25.44 | 37033 | 65951 5 | 14:39.27 | 3:34.40 | 65952 | 82041 6 | 18:13.67 | 3:33.55 | 82042 | 98071 7 | 21:47.47 | 3:44.70 | 98072 | 114941 8 | 25:32.42 | 3:15.35 | 114942 | 129601 9 | 28:48.02 | 2:19.35 | 129602 | 140061 10 | 31:07.37 | 4:51.52 | 140062 | 161938 11 | 35:59.14 | 2:46.62 | 161939 | 174450 12 | 38:46.01 | 4:36.23 | 174451 | 195173 13 | 43:22.24 | 2:41.13 | 195174 | 207261 14 | 46:03.37 | 2:57.61 | 207262 | 220597 15 | 49:01.23 | 3:02.67 | 220598 | 234314 16 | 52:04.15 | 2:26.44 | 234315 | 245308 17 | 54:30.59 | 2:21.14 | 245309 | 255897 18 | 56:51.73 | 3:55.20 | 255898 | 273542 19 | 60:47.18 | 2:22.70 | 273543 | 284262 20 | 63:10.13 | 1:54.16 | 284263 | 292828

Track 1

Filename 01 - Tarzan (1999) - You'll Be In My Heart.wav

Pre-gap length 0:00:02.00

Peak level 46.8 % Track quality 100.0 % Test CRC D9188F55 Copy CRC D9188F55 Accurately ripped (confidence 2) [EB0B8BCC] Copy OK

Track 2

Filename 02 - Mulan (1998) - I'll Make A Man Out Of You.wav

Peak level 83.9 % Track quality 100.0 % Test CRC 995EF094 Copy CRC 995EF094 Accurately ripped (confidence 2) [033C40EF] Copy OK

Track 3

Filename 03 - Hercules (1997) - Go The Distance.wav

Peak level 86.4 % Track quality 100.0 % Test CRC F427E297 Copy CRC F427E297 Accurately ripped (confidence 2) [9D0E1A06] Copy OK

Track 4

Filename 04 - The Hunchback Of Notre Dame (1996) - Bells Of Notre Dame.wav

Peak level 100.0 % Track quality 100.0 % Test CRC 1E3E5A38 Copy CRC 1E3E5A38 Accurately ripped (confidence 2) [41FFA048] Copy OK

Track 5

Filename 05 - Pocahontas (1995) - Colors Of The Wind.wav

Peak level 91.9 % Track quality 99.9 % Test CRC 329FF249 Copy CRC 329FF249 Accurately ripped (confidence 2) [D33A16B3] Copy OK

Track 6

Filename 06 - The Lion King (1994) - Hakuna Matata.wav

Peak level 96.9 % Track quality 100.0 % Test CRC 24678F8C Copy CRC 24678F8C Accurately ripped (confidence 2) [3EEBC6E2] Copy OK

Track 7

Filename 07 - Beauty And The Beast (1991) - Be Our Guest.wav

Peak level 100.0 % Track quality 100.0 % Test CRC 9474189F Copy CRC 9474189F Accurately ripped (confidence 2) [98EE9B56] Copy OK

Track 8

Filename 08 - The Little Mermaid (1989) - Under The Sea.wav

Peak level 84.9 % Track quality 100.0 % Test CRC 2B01D1E0 Copy CRC 2B01D1E0 Accurately ripped (confidence 2) [2F202854] Copy OK

Track 9

Filename 09 - Winnie-The-Pooh And The Honey Tree (1966) - Winnie-The-Pooh.wav

Peak level 53.9 % Track quality 99.9 % Test CRC 7D0E497A Copy CRC 7D0E497A Accurately ripped (confidence 2) [DB673C4B] Copy OK

Track 10

Filename 10 - The Jungle Book (1967) - Bare Necessities.wav

Peak level 83.3 % Track quality 100.0 % Test CRC FCB9E623 Copy CRC FCB9E623 Accurately ripped (confidence 2) [0FE1370F] Copy OK

Track 11

Filename 11 - Mary Poppins (1964) - Chim Chim Cher-Ee.wav

Peak level 87.7 % Track quality 100.0 % Test CRC C1F3D023 Copy CRC C1F3D023 Accurately ripped (confidence 2) [6F5A2756] Copy OK

Track 12

Filename 12 - Cinderella (1950) - A Dream Is A Wish Your Heart Makes.wav

Peak level 66.9 % Track quality 100.0 % Test CRC 3B32208F Copy CRC 3B32208F Cannot be verified as accurate (confidence 3) [29174D52], AccurateRip returned [4EEF4E49] Copy OK

Track 13

Filename 13 - Mickey Mouse Club (1955-59) - Mickey Mouse March.wav

Peak level 64.0 % Track quality 100.0 % Test CRC 6AA8DDD5 Copy CRC 6AA8DDD5 Accurately ripped (confidence 2) [73C16A04] Copy OK

Track 14

Filename 14 - Davy Crockett (1954-55) - The Ballad Of Davy Crockett.wav

Peak level 56.4 % Track quality 100.0 % Test CRC 873D86B4 Copy CRC 873D86B4 Accurately ripped (confidence 2) [A4F6B02C] Copy OK

Track 15

Filename 15 - New York World's Fair (1964) - It's A Small World.wav

Peak level 54.7 % Track quality 100.0 % Test CRC 61930E59 Copy CRC 61930E59 Accurately ripped (confidence 2) [4D989FE4] Copy OK

Track 16

Filename 16 - Lady And The Tramp (1955) - He's A Tramp.wav

Peak level 84.0 % Track quality 100.0 % Test CRC 958FFB8E Copy CRC 958FFB8E Accurately ripped (confidence 2) [B02F9187] Copy OK

Track 17

Filename 17 - Peter Pan (1953) - The Second Star To The Right.wav

Peak level 69.2 % Track quality 100.0 % Test CRC DB9FD641 Copy CRC DB9FD641 Accurately ripped (confidence 2) [4FCF5096] Copy OK

Track 18

Filename 18 - Bambi (1942) - Little April Shower.wav

Peak level 86.5 % Track quality 100.0 % Test CRC F33EB397 Copy CRC F33EB397 Accurately ripped (confidence 2) [BE462016] Copy OK

Track 19

Filename 19 - Pinocchio (1940) - I've Got No Strings.wav

Peak level 69.0 % Track quality 100.0 % Test CRC 9AF3C0A5 Copy CRC 9AF3C0A5 Accurately ripped (confidence 2) [B8081D36] Copy OK

Track 20

Filename 20 - Snow White (1937) - Some Day My Prince Will Come.wav

Peak level 85.8 % Track quality 99.9 % Test CRC 18BAEA96 Copy CRC 18BAEA96 Cannot be verified as accurate (confidence 3) [97E903D4], AccurateRip returned [A1F23A49] Copy OK

18 track(s) accurately ripped 2 track(s) could not be verified as accurate

Some tracks could not be verified as accurate

No errors occurred

End of status report
REM GENRE SoundtrackREM DATE 2001REM DISCID 230F4014REM COMMENT "ExactAudioCopy v0.99pb4"PERFORMER "Various"TITLE "Disney's Greatest Volume 2"FILE "01 - Tarzan (1999) - You'll Be In My Heart.wav" WAVE TRACK 01 AUDIO TITLE "You'll Be In My Heart" PERFORMER "Tarzan (1999)" FLAGS DCP INDEX 01 00:00:00FILE "02 - Mulan (1998) - I'll Make A Man Out Of You.wav" WAVE TRACK 02 AUDIO TITLE "I'll Make A Man Out Of You" PERFORMER "Mulan (1998)" FLAGS DCP INDEX 01 00:00:00FILE "03 - Hercules (1997) - Go The Distance.wav" WAVE TRACK 03 AUDIO TITLE "Go The Distance" PERFORMER "Hercules (1997)" FLAGS DCP INDEX 01 00:00:00FILE "04 - The Hunchback Of Notre Dame (1996) - Bells Of Notre Dame.wav" WAVE TRACK 04 AUDIO TITLE "Bells Of Notre Dame" PERFORMER "The Hunchback Of Notre Dame (1996)" FLAGS DCP INDEX 01 00:00:00FILE "05 - Pocahontas (1995) - Colors Of The Wind.wav" WAVE TRACK 05 AUDIO TITLE "Colors Of The Wind" PERFORMER "Pocahontas (1995)" FLAGS DCP INDEX 01 00:00:00FILE "06 - The Lion King (1994) - Hakuna Matata.wav" WAVE TRACK 06 AUDIO TITLE "Hakuna Matata" PERFORMER "The Lion King (1994)" FLAGS DCP INDEX 01 00:00:00FILE "07 - Beauty And The Beast (1991) - Be Our Guest.wav" WAVE TRACK 07 AUDIO TITLE "Be Our Guest" PERFORMER "Beauty And The Beast (1991)" FLAGS DCP INDEX 01 00:00:00FILE "08 - The Little Mermaid (1989) - Under The Sea.wav" WAVE TRACK 08 AUDIO TITLE "Under The Sea" PERFORMER "The Little Mermaid (1989)" FLAGS DCP INDEX 01 00:00:00FILE "09 - Winnie-The-Pooh And The Honey Tree (1966) - Winnie-The-Pooh.wav" WAVE TRACK 09 AUDIO TITLE "Winnie-The-Pooh" PERFORMER "Winnie-The-Pooh And The Honey Tree (1966)" FLAGS DCP INDEX 01 00:00:00FILE "10 - The Jungle Book (1967) - Bare Necessities.wav" WAVE TRACK 10 AUDIO TITLE "Bare Necessities" PERFORMER "The Jungle Book (1967)" FLAGS DCP INDEX 01 00:00:00FILE "11 - Mary Poppins (1964) - Chim Chim Cher-Ee.wav" WAVE TRACK 11 AUDIO TITLE "Chim Chim Cher-Ee" PERFORMER "Mary Poppins (1964)" FLAGS DCP INDEX 01 00:00:00FILE "12 - Cinderella (1950) - A Dream Is A Wish Your Heart Makes.wav" WAVE TRACK 12 AUDIO TITLE "A Dream Is A Wish Your Heart Makes" PERFORMER "Cinderella (1950)" FLAGS DCP INDEX 01 00:00:00FILE "13 - Mickey Mouse Club (1955-59) - Mickey Mouse March.wav" WAVE TRACK 13 AUDIO TITLE "Mickey Mouse March" PERFORMER "Mickey Mouse Club (1955-59)" FLAGS DCP INDEX 01 00:00:00FILE "14 - Davy Crockett (1954-55) - The Ballad Of Davy Crockett.wav" WAVE TRACK 14 AUDIO TITLE "The Ballad Of Davy Crockett " PERFORMER "Davy Crockett (1954-55)" FLAGS DCP INDEX 01 00:00:00FILE "15 - New York World's Fair (1964) - It's A Small World.wav" WAVE TRACK 15 AUDIO TITLE "It's A Small World " PERFORMER "New York World's Fair (1964)" FLAGS DCP INDEX 01 00:00:00FILE "16 - Lady And The Tramp (1955) - He's A Tramp.wav" WAVE TRACK 16 AUDIO TITLE "He's A Tramp " PERFORMER "Lady And The Tramp (1955)" FLAGS DCP INDEX 01 00:00:00FILE "17 - Peter Pan (1953) - The Second Star To The Right.wav" WAVE TRACK 17 AUDIO TITLE "The Second Star To The Right " PERFORMER "Peter Pan (1953)" FLAGS DCP INDEX 01 00:00:00FILE "18 - Bambi (1942) - Little April Shower.wav" WAVE TRACK 18 AUDIO TITLE "Little April Shower " PERFORMER "Bambi (1942)" FLAGS DCP INDEX 01 00:00:00FILE "19 - Pinocchio (1940) - I've Got No Strings.wav" WAVE TRACK 19 AUDIO TITLE "I've Got No Strings " PERFORMER "Pinocchio (1940)" FLAGS DCP INDEX 01 00:00:00FILE "20 - Snow White (1937) - Some Day My Prince Will Come.wav" WAVE TRACK 20 AUDIO TITLE "Some Day My Prince Will Come " PERFORMER "Snow White (1937)" FLAGS DCP INDEX 01 00:00:00
[/spoiler]
[spoiler="2002 - Disney's Greatest, Volume 3 [60788-7]"]
Продолжительность: 01:05:03
Треклист:

01. Return To Never Land (2002) - I'll Try [4:06]
02. Toy Story 2 (1999) - When She Loved Me [3:06]
03. Rhythm Of The Pridelands (1995) - He Lives In You [4:51]
04. The Tigger Movie (1999) - The Wonderful Thing About Tiggers [0:36]
05. The Hunchback Of Notre Dame (1996) - Topsy Turvy [5:37]
06. The Lion King (1994) - Can You Feel The Love Tonight [2:58]
07. The Nightmare Before Christmas (1993) - What's This? [3:07]
08. Beauty And The Beast (1991) - Gaston [3:38]
09. The Little Mermaid (1989) - Poor Unfortunate Souls [4:51]
10. The Little Mermaid (1989) - Part Of Your World [3:14]
11. The Fox And The Hound (1981) - Best Of Friends [2:15]
12. Aristocats (1970) - Ev'rybody Wants To Be A Cat [2:02]
13. Pirates Of The Caribbean (1967) - Yo Ho! (A Pirate's Life For Me) [4:44]
14. Mary Poppins (1964) - A Spoonful Of Sugar [4:08]
15. The Enchanted Tiki Room (1963) - The Tiki, Tiki, Tiki Room [2:39]
16. Lady And The Tramp (1955) - The Siamese Cat Song [2:09]
17. Dumbo (1941) - Pink Elephants On Parade [4:30]
18. Pinocchio (1940) - Give A Little Whistle [1:37]
19. The Three Little Pigs (1933) - Who's Afraid Of The Big, Bad Wolf [3:07]
20. Mickey Mouse Club (1955-59) - Mickey Mouse Club, Alma Mater [1:48]
Exact Audio Copy V0.99 prebeta 4 from 23. January 2008

EAC extraction logfile from 23. July 2010, 18:20

Various / Disney's Greatest Volume 3

Used drive : TSSTcorpCDDVDW TS-H653N Adapter: 2 ID: 2

Read mode : SecureUtilize accurate stream : YesDefeat audio cache : YesMake use of C2 pointers : No

Read offset correction : 6Overread into Lead-In and Lead-Out : NoFill up missing offset samples with silence : YesDelete leading and trailing silent blocks : NoNull samples used in CRC calculations : YesUsed interface : Installed external ASPI interfaceGap handling : Appended to previous track

Used output format : User Defined EncoderSelected bitrate : 320 kBit/sQuality : HighAdd ID3 tag : NoCommand line compressor : C:\Program Files\Exact Audio Copy\FLAC\FLAC.EXEAdditional command line options : -V -8 -T "artist=%a" -T "title=%t" -T "album=%g" -T "date=%y" -T "tracknumber=%n" -T "genre=%m" %s

TOC of the extracted CD

Track | Start | Length | Start sector | End sector --------------------------------------------------------- 1 | 0:00.00 | 4:05.47 | 0 | 18421 2 | 4:05.47 | 3:05.51 | 18422 | 32347 3 | 7:11.23 | 4:51.02 | 32348 | 54174 4 | 12:02.25 | 0:36.30 | 54175 | 56904 5 | 12:38.55 | 5:36.40 | 56905 | 82144 6 | 18:15.20 | 2:57.66 | 82145 | 95485 7 | 21:13.11 | 3:06.63 | 95486 | 109498 8 | 24:19.74 | 3:38.29 | 109499 | 125877 9 | 27:58.28 | 4:51.10 | 125878 | 147712 10 | 32:49.38 | 3:13.65 | 147713 | 162252 11 | 36:03.28 | 2:15.26 | 162253 | 172403 12 | 38:18.54 | 2:01.73 | 172404 | 181551 13 | 40:20.52 | 4:44.20 | 181552 | 202871 14 | 45:04.72 | 4:08.03 | 202872 | 221474 15 | 49:13.00 | 2:38.74 | 221475 | 233398 16 | 51:51.74 | 2:09.17 | 233399 | 243090 17 | 54:01.16 | 4:30.32 | 243091 | 263372 18 | 58:31.48 | 1:36.53 | 263373 | 270625 19 | 60:08.26 | 3:07.24 | 270626 | 284674 20 | 63:15.50 | 1:47.47 | 284675 | 292746 21 | 67:35.22 | 0:43.42 | 304147 | 307413

Track 1

Filename 01 - Return To Never Land (2002) - I'll Try.wav

Pre-gap length 0:00:02.00

Peak level 90.6 % Track quality 100.0 % Test CRC B500DE06 Copy CRC B500DE06 Accurately ripped (confidence 1) [187F8092] Copy OK

Track 2

Filename 02 - Toy Story 2 (1999) - When She Loved Me.wav

Pre-gap length 0:00:01.23

Peak level 94.9 % Track quality 100.0 % Test CRC C1107231 Copy CRC C1107231 Accurately ripped (confidence 1) [DE09BB17] Copy OK

Track 3

Filename 03 - Rhythm Of The Pridelands (1995) - He Lives In You.wav

Pre-gap length 0:00:01.55

Peak level 100.0 % Track quality 100.0 % Test CRC 14B40057 Copy CRC 14B40057 Accurately ripped (confidence 1) [97679E40] Copy OK

Track 4

Filename 04 - The Tigger Movie (1999) - The Wonderful Thing About Tiggers.wav

Pre-gap length 0:00:02.18

Peak level 79.3 % Track quality 100.0 % Test CRC B22AEE3D Copy CRC B22AEE3D Accurately ripped (confidence 1) [554FAB0E] Copy OK

Track 5

Filename 05 - The Hunchback Of Notre Dame (1996) - Topsy Turvy.wav

Pre-gap length 0:00:01.71

Peak level 99.7 % Track quality 100.0 % Test CRC 64208D4D Copy CRC 64208D4D Accurately ripped (confidence 1) [5C88580D] Copy OK

Track 6

Filename 06 - The Lion King (1994) - Can You Feel The Love Tonight.wav

Pre-gap length 0:00:02.02

Peak level 94.9 % Track quality 100.0 % Test CRC 0F11FD94 Copy CRC 0F11FD94 Accurately ripped (confidence 1) [DFF27600] Copy OK

Track 7

Filename 07 - The Nightmare Before Christmas (1993) - What's This .wav

Pre-gap length 0:00:01.51

Peak level 95.3 % Track quality 100.0 % Test CRC 3836C16E Copy CRC 3836C16E Accurately ripped (confidence 1) [26FE7AE6] Copy OK

Track 8

Filename 08 - Beauty And The Beast (1991) - Gaston.wav

Pre-gap length 0:00:01.23

Peak level 95.3 % Track quality 100.0 % Test CRC 8F629E94 Copy CRC 8F629E94 Accurately ripped (confidence 1) [13862BF3] Copy OK

Track 9

Filename 09 - The Little Mermaid (1989) - Poor Unfortunate Souls.wav

Pre-gap length 0:00:01.49

Peak level 100.0 % Track quality 100.0 % Test CRC 1015D5C8 Copy CRC 1015D5C8 Accurately ripped (confidence 1) [EBE107A8] Copy OK

Track 10

Filename 10 - The Little Mermaid (1989) - Part Of Your World.wav

Pre-gap length 0:00:02.27

Peak level 99.9 % Track quality 100.0 % Test CRC 04EF2850 Copy CRC 04EF2850 Accurately ripped (confidence 1) [31432C36] Copy OK

Track 11

Filename 11 - The Fox And The Hound (1981) - Best Of Friends.wav

Pre-gap length 0:00:01.14

Peak level 100.0 % Track quality 100.0 % Test CRC 2E6977BF Copy CRC 2E6977BF Accurately ripped (confidence 1) [A7BD164C] Copy OK

Track 12

Filename 12 - Aristocats (1970) - Ev'rybody Wants To Be A Cat.wav

Peak level 86.4 % Track quality 100.0 % Test CRC F85D3BD9 Copy CRC F85D3BD9 Accurately ripped (confidence 1) [0079D3A8] Copy OK

Track 13

Filename 13 - Pirates Of The Caribbean (1967) - Yo Ho! (A Pirate's Life For Me).wav

Pre-gap length 0:00:01.37

Peak level 78.2 % Track quality 99.9 % Test CRC 46DAF94D Copy CRC 46DAF94D Accurately ripped (confidence 1) [5B906A7C] Copy OK

Track 14

Filename 14 - Mary Poppins (1964) - A Spoonful Of Sugar.wav

Pre-gap length 0:00:00.42

Peak level 86.3 % Track quality 99.9 % Test CRC 5750D5D6 Copy CRC 5750D5D6 Accurately ripped (confidence 1) [52ED07C9] Copy OK

Track 15

Filename 15 - The Enchanted Tiki Room (1963) - The Tiki, Tiki, Tiki Room.wav

Pre-gap length 0:00:01.35

Peak level 100.0 % Track quality 100.0 % Test CRC B1F7CDB7 Copy CRC B1F7CDB7 Accurately ripped (confidence 1) [0D596B9A] Copy OK

Track 16

Filename 16 - Lady And The Tramp (1955) - The Siamese Cat Song.wav

Pre-gap length 0:00:01.45

Peak level 73.8 % Track quality 100.0 % Test CRC CF390025 Copy CRC CF390025 Accurately ripped (confidence 1) [809D0AA9] Copy OK

Track 17

Filename 17 - Dumbo (1941) - Pink Elephants On Parade.wav

Pre-gap length 0:00:01.05

Peak level 89.0 % Track quality 100.0 % Test CRC 4841FAF6 Copy CRC 4841FAF6 Accurately ripped (confidence 1) [7A472F09] Copy OK

Track 18

Filename 18 - Pinocchio (1940) - Give A Little Whistle.wav

Pre-gap length 0:00:01.48

Peak level 89.0 % Track quality 100.0 % Test CRC 804977DE Copy CRC 804977DE Accurately ripped (confidence 1) [54453771] Copy OK

Track 19

Filename 19 - The Three Little Pigs (1933) - Who's Afraid Of The Big, Bad Wolf.wav

Pre-gap length 0:00:01.34

Peak level 89.0 % Track quality 100.0 % Test CRC CB02718A Copy CRC CB02718A Accurately ripped (confidence 1) [7A8F9DD7] Copy OK

Track 20

Filename 20 - Mickey Mouse Club (1955-59) - Mickey Mouse Club, Alma Mater.wav

Pre-gap length 0:00:01.40

Peak level 70.7 % Track quality 100.0 % Test CRC 2A1E9B50 Copy CRC 2A1E9B50 Accurately ripped (confidence 1) [6AB77E46] Copy OK

All tracks accurately ripped

No errors occurred

End of status report
REM GENRE SoundtrackREM DATE 2002REM DISCID 16100215REM COMMENT "ExactAudioCopy v0.99pb4"PERFORMER "Various"TITLE "Disney's Greatest Volume 3"FILE "01 - Return To Never Land (2002) - I'll Try.wav" WAVE TRACK 01 AUDIO TITLE "I'll Try" PERFORMER "Return To Never Land (2002)" INDEX 01 00:00:00 TRACK 02 AUDIO TITLE "When She Loved Me" PERFORMER "Toy Story 2 (1999)" INDEX 00 04:04:24FILE "02 - Toy Story 2 (1999) - When She Loved Me.wav" WAVE INDEX 01 00:00:00 TRACK 03 AUDIO TITLE "He Lives In You" PERFORMER "Rhythm Of The Pridelands (1995)" INDEX 00 03:03:71FILE "03 - Rhythm Of The Pridelands (1995) - He Lives In You.wav" WAVE INDEX 01 00:00:00 TRACK 04 AUDIO TITLE "The Wonderful Thing About Tiggers" PERFORMER "The Tigger Movie (1999)" INDEX 00 04:48:59FILE "04 - The Tigger Movie (1999) - The Wonderful Thing About Tiggers.wav" WAVE INDEX 01 00:00:00 TRACK 05 AUDIO TITLE "Topsy Turvy" PERFORMER "The Hunchback Of Notre Dame (1996)" INDEX 00 00:34:34FILE "05 - The Hunchback Of Notre Dame (1996) - Topsy Turvy.wav" WAVE INDEX 01 00:00:00 TRACK 06 AUDIO TITLE "Can You Feel The Love Tonight" PERFORMER "The Lion King (1994)" INDEX 00 05:34:38FILE "06 - The Lion King (1994) - Can You Feel The Love Tonight.wav" WAVE INDEX 01 00:00:00 TRACK 07 AUDIO TITLE "What's This?" PERFORMER "The Nightmare Before Christmas (1993)" INDEX 00 02:56:15FILE "07 - The Nightmare Before Christmas (1993) - What's This .wav" WAVE INDEX 01 00:00:00 TRACK 08 AUDIO TITLE "Gaston" PERFORMER "Beauty And The Beast (1991)" INDEX 00 03:05:40FILE "08 - Beauty And The Beast (1991) - Gaston.wav" WAVE INDEX 01 00:00:00 TRACK 09 AUDIO TITLE "Poor Unfortunate Souls" PERFORMER "The Little Mermaid (1989)" INDEX 00 03:36:55FILE "09 - The Little Mermaid (1989) - Poor Unfortunate Souls.wav" WAVE INDEX 01 00:00:00 TRACK 10 AUDIO TITLE "Part Of Your World" PERFORMER "The Little Mermaid (1989)" INDEX 00 04:48:58FILE "10 - The Little Mermaid (1989) - Part Of Your World.wav" WAVE INDEX 01 00:00:00 TRACK 11 AUDIO TITLE "Best Of Friends" PERFORMER "The Fox And The Hound (1981)" INDEX 00 03:12:51FILE "11 - The Fox And The Hound (1981) - Best Of Friends.wav" WAVE INDEX 01 00:00:00FILE "12 - Aristocats (1970) - Ev'rybody Wants To Be A Cat.wav" WAVE TRACK 12 AUDIO TITLE "Ev'rybody Wants To Be A Cat" PERFORMER "Aristocats (1970)" INDEX 01 00:00:00 TRACK 13 AUDIO TITLE "Yo Ho! (A Pirate's Life For Me)" PERFORMER "Pirates Of The Caribbean (1967)" INDEX 00 02:00:36FILE "13 - Pirates Of The Caribbean (1967) - Yo Ho! (A Pirate's Life For Me).wav" WAVE INDEX 01 00:00:00 TRACK 14 AUDIO TITLE "A Spoonful Of Sugar" PERFORMER "Mary Poppins (1964)" INDEX 00 04:43:53FILE "14 - Mary Poppins (1964) - A Spoonful Of Sugar.wav" WAVE INDEX 01 00:00:00 TRACK 15 AUDIO TITLE "The Tiki, Tiki, Tiki Room" PERFORMER "The Enchanted Tiki Room (1963)" INDEX 00 04:06:43FILE "15 - The Enchanted Tiki Room (1963) - The Tiki, Tiki, Tiki Room.wav" WAVE INDEX 01 00:00:00 TRACK 16 AUDIO TITLE "The Siamese Cat Song" PERFORMER "Lady And The Tramp (1955)" INDEX 00 02:37:29FILE "16 - Lady And The Tramp (1955) - The Siamese Cat Song.wav" WAVE INDEX 01 00:00:00 TRACK 17 AUDIO TITLE "Pink Elephants On Parade" PERFORMER "Dumbo (1941)" INDEX 00 02:08:12FILE "17 - Dumbo (1941) - Pink Elephants On Parade.wav" WAVE INDEX 01 00:00:00 TRACK 18 AUDIO TITLE "Give A Little Whistle" PERFORMER "Pinocchio (1940)" INDEX 00 04:28:59FILE "18 - Pinocchio (1940) - Give A Little Whistle.wav" WAVE INDEX 01 00:00:00 TRACK 19 AUDIO TITLE "Who's Afraid Of The Big, Bad Wolf" PERFORMER "The Three Little Pigs (1933)" INDEX 00 01:35:19FILE "19 - The Three Little Pigs (1933) - Who's Afraid Of The Big, Bad Wolf.wav" WAVE INDEX 01 00:00:00 TRACK 20 AUDIO TITLE "Mickey Mouse Club, Alma Mater" PERFORMER "Mickey Mouse Club (1955-59)" INDEX 00 03:05:59FILE "20 - Mickey Mouse Club (1955-59) - Mickey Mouse Club, Alma Mater.wav" WAVE INDEX 01 00:00:00 TRACK 21 MODEx/2xxx TITLE "DATA" PERFORMER "DATA" INDEX 00 01:47:47
[/spoiler]

Трекер:  [ 30-Авг-2015 10:00 ]

  

Скачать .torrent

Размер .torrent файла 26 KB


Размер: 875 MB
Хэш (hash) релиза: ad5d44ec06e648ef473ccc4f9aeb5092674e2419

Еще никто не оставлял запись к записи скачать торрент . Будь первым!

!Обратная связь