Скачать через торрент Любовные неприятности - Тьма 2 бесплатно Аниме Все серии на русском torrent

Если у вас наблюдаются проблемы со скриншотами, переходом по ссылками, скачиванием торрентов - проблемы в блокировщике рекламы AdBlock. #хорошегоДня!


Статистика раздачи
Размер:  400 MB   |    Зарегистрирован:  2 года 2 месяца   |    .torrent скачан:  12 раз   |   
Раздают:  1  
   
Загрузка...
 
Автор Сообщение

Galfimbul

avatar Galfimbul



Любовные неприятности - Тьма 2 / To Love-Ru: Trouble - Darkness 2nd / To Loveる-とらぶる-ダークネス2nd
Год выпуска: 2015 г.
Страна: Япония
Жанр: Комедия, Этти
Тип: TV
Продолжительность: 12 эп. по 00:23:41
Режиссер: Оцуки Ацуси
Студия: Xebec
Перевод:
<ol class="post-ul">
Русские субтитры от Adyson
</ol>
<ol class="post-ul">
Русские субтитры от Gerale & Komugi-chan
</ol>
Описание:
Все смешалось в доме Рито Юки, но коварный план принцессы Момо близится к финишу! Число девушек, чей мир вращается вокруг простого земного парня, давно перевалило опасную черту, но если простодушный Рито признает себя галактическим принцем, то сможет открыто иметь гарем, а там семья Девилюк быстро наведет порядок. Лала, старшая принцесса, в душе истинный ученый и не отвлекается на бытовые вопросы, с сестренкой Наной умница Момо договорится, а остальные даже пикнуть не посмеют!

В самом деле, кого бояться-то? Аборигенка Харуна просто плывет по течению, золотоволосая Ями больше не угроза – некогда первая убийца обитаемой Вселенной давно разоружилась перед заказанным «объектом». Правда, воду мутит ее молодая коллега Мэа, решившая поиграть в собственные игры и заработать репутацию, но, как говорится, не таких обламывали – быть и ей в дружном женском коллективе. А остальных прекрасных дам милости просим – то есть, посторонним вход воспрещен!
Информационные ссылки: World Art || AniDB || MAL
Качество: BDRip | Рип: [SkillfuLoli]
Тип релиза: Без хардсаба
Формат видео: MP4
Наличие линковки: Нет
Видео: AVC, 1280x720, ~1051 kbps, 23.976 fps [8 bit]
Аудио:
1. Japanese AAC, 48.0 KHz, 125 kbps, 2 ch;
Субтитры:
<ol class="post-ul">
Russian: ASS, внешние;
</ol>
General Format : MPEG-4 Format profile : Base Media Codec ID : isom File size : 200 MiB Duration : 23mn 41s Overall bit rate mode : Variable Overall bit rate : 1 180 Kbps Encoded date : UTC 2015-09-25 16:16:54 Tagged date : UTC 2015-09-25 16:16:54 Video #1 ID : 1 Format : AVC Format/Info : Advanced Video Codec Format profile : High@L4.0 Format settings, CABAC : Yes Format settings, ReFrames : 9 frames Codec ID : avc1 Codec ID/Info : Advanced Video Coding Duration : 23mn 41s Bit rate : 1 050 Kbps Maximum bit rate : 6 971 Kbps Width : 1 280 pixels Height : 720 pixels Display aspect ratio : 16:9 Frame rate mode : Constant Frame rate : 23.976 fps Color space : YUV Chroma subsampling : 4:2:0 Bit depth : 8 bits Scan type : Progressive Bits/(Pixel*Frame) : 0.048 Stream size : 178 MiB (89%) Writing library : x264 core 142.2431 exMod v2 [8-bit@all X86_64] Encoding settings : cabac=1 / ref=9 / deblock=1:1:-1 / analyse=0x3:0x133 / me=umh / subme=9 / psy=1 / fade_compensate=0.00 / psy_rd=0.50:0.00 / mixed_ref=1 / me_range=32 / chroma_me=1 / trellis=2 / 8x8dct=1 / cqm=0 / deadzone=21,11 / fast_pskip=0 / chroma_qp_offset=-2 / threads=16 / lookahead_threads=2 / sliced_threads=0 / nr=0 / decimate=0 / interlaced=0 / bluray_compat=0 / constrained_intra=0 / fgo=0 / bframes=6 / b_pyramid=2 / b_adapt=2 / b_bias=0 / direct=3 / weightb=1 / open_gop=0 / weightp=2 / keyint=250 / keyint_min=23 / scenecut=40 / intra_refresh=0 / rc_lookahead=64 / rc=2pass / mbtree=0 / bitrate=1050 / ratetol=1.0 / qcomp=0.78 / qpmin=10:10:10 / qpmax=50:50:50 / qpstep=12 / cplxblur=20.0 / qblur=0.5 / vbv_maxrate=10000 / vbv_bufsize=31250 / nal_hrd=none / filler=0 / ip_ratio=1.40 / pb_ratio=1.30 / aq=disabled / aq2=0 / aq3=0 / caq=1:Merge0:[1.0:0.2]:[B0.0:0.0]:[D1.0:1.0]:[Mo0.0:0.0]:[Me0.0:0.0] / caq-debug=0 / caq-dark=40 / caq-map_summary=5:[-6.7:-2.8:-0.2:0.2][-4.2:-3.1:-0.4:0.2][-3.2:-2.0:-0.0:0.2][-2.2:-0.9:0.0:0.2][-0.7:-0.8:0.0:0.2][0.0:-0.8:0.0:0.2] / caq_zones=5 / caq-factor=[R1.00:1.00]:[U1.00:1.00]:[I1.00:1.00]:[P1.00:1.00]:[B1.00:1.00] Encoded date : UTC 2015-09-25 16:16:54 Tagged date : UTC 2015-09-25 16:16:55 Color primaries : BT.709 Transfer characteristics : BT.709 Matrix coefficients : BT.709 Audio #2 ID : 2 Format : AAC Format/Info : Advanced Audio Codec Format profile : LC Codec ID : 40 Duration : 23mn 41s Bit rate mode : Variable Bit rate : 125 Kbps Maximum bit rate : 205 Kbps Channel(s) : 2 channels Channel positions : Front: L R Sampling rate : 48.0 KHz Compression mode : Lossy Stream size : 21.2 MiB (11%) Encoded date : UTC 2015-09-25 16:16:55 Tagged date : UTC 2015-09-25 16:16:55

01. Бессознательно: В голове порядок - на сердце тяжело / Unconsciously: Light-Headed and Heart-Pounding
02. Беспокойное: Сердце в смятении / Uneasy: An Uncertain Heart
[url]...5038230[/url]
- BDRip


Трекер:  [ 26-Сен-2015 23:30 ]

  

Скачать .torrent

Размер .torrent файла 16 KB


Размер: 400 MB
Хэш (hash) релиза: d0236a8a3dbcd5aaca09afaa25dca0c740f0c767
Подписка на обновления:

Торренты, похожие на Любовные неприятности - Тьма 2 скачать торрент

Форум Название Автор Размер S L Добавлен
Аниме | HD Rips ·· Любовные неприятности - Тьма 2 / To Love-Ru Trouble - Darkness 2nd (Оцуки Ацуси) [TV] [01-14 из 14] [Без хардсаба] [RUS(ext), JAP+SUB] [2015 г., комедия, этти, HDTVRip] [720p] Galfimbul 61321489585.71 GB 0 0 1453348727

06:58

21-Янв-16

Аниме | HD Rips ·· Любовные неприятности - Тьма 2 / To Love-Ru: Trouble - Darkness 2nd (Оцуки Ацуси) [TV] [01-06 из 14] [Без хардсаба] [RUS(ext), JAP+SUB] [2015 г., комедия, этти, BDRip] [1080p] Galfimbul 1391562698412.96 GB 0 0 1449796567

04:16

11-Дек-15

Аниме | Rips ·· Любовные неприятности - Тьма 2 (ТВ-4) / To Love-Ru: Trouble - Darkness 2nd [TV] [01-04 из 12] [Без хардсаба] [RUS(ext), JAP, SUB] [2015 г., Комедия, Этти, HDTVRip] [720p] Galfimbul 11957326941.11 GB 0 0 1448665480

02:04

28-Ноя-15

Аниме | HD Rips ·· Любовные неприятности - Тьма 2 / To LOVE-Ru Darkness 2nd (Оцуки Ацуси) [TV] [Без хардсаба] [01-02 из 12] [RUS(ext), JAP+SUB] [2015 г., комедия, этти, BDRip] [1080p] Galfimbul 719611954686 MB 0 0 1443342910

11:35

27-Сен-15

Аниме | HD Rips ·· Любовные неприятности - Тьма 2 / To LOVE-Ru Darkness 2nd (Оцуки Ацуси) [TV] [Без хардсаба] [01-02 из 12] [RUS(ext), JAP+SUB] [2015 г., комедия, этти, BDRip] [720p] Galfimbul 488063359465 MB 0 0 1443338855

10:27

27-Сен-15

Аниме | HD Rips ·· Любовные неприятности - Тьма 2 / To LOVE-Ru Darkness 2nd (Оцуки Ацуси) [TV] [Без хардсаба] [01-05 из 12] [RUS(ext)] & [01-03 из 12] [JAP+SUB] [2015 г., комедия, этти, HDTVRip] [720p] Galfimbul 20089005171.87 GB 0 0 1439331900

01:25

12-Авг-15

Аниме | HD Rips ·· Любовные неприятности - Тьма 2 / To LOVE-Ru Darkness 2nd (Оцуки Ацуси) [TV] [1 из 12] [Без хардсаба] [RUS(ext), JAP+SUB] [2015 г., комедия, этти, HDTVRip] [720p] Galfimbul 358378758342 MB 0 0 1436405382

04:29

9-Июл-15

Аниме | Rips ·· Любовные неприятности: Тьма (ОВА-2) / To Love-Ru: Trouble - Darkness [OVA] [9 из 9] [Без хардсаба] [RUS(ext), JAP, SUB] [2012, Комедия, Этти, Гарем, Романтика, Школа, Сёнен, DVDRip] Galfimbul 29195013812.72 GB 0 0 1496963225

02:07

9-Июн-17

Аниме | Rips ·· Любовные неприятности: Тьма (ОВА-2) / To Love-Ru: Trouble - Darkness [OVA] [09 из 9] [Без хардсаба] [JAP, SUB] [2012, Комедия, Этти, Гарем, Романтика, Школа, Сёнен, DVDRip] Galfimbul 244996712234 MB 0 0 1483674854

06:54

6-Янв-17

Аниме | Rips ·· Любовные неприятности: Тьма (ОВА-2) / To Love-Ru: Trouble - Darkness [OVA] [9 из 9] [Без хардсаба] [JAP, SUB] & [RUS(ext)] [8 из 9] [2012, Комедия, Этти, Гарем, Романтика, Школа, Сёнен, DVDRip] Galfimbul 28804322092.68 GB 0 0 1483512679

09:51

4-Янв-17

Аниме | Rips ·· Любовные неприятности: Тьма (ОВА-2) / To Love-Ru: Trouble - Darkness [OVA] [01-08 из 09] [Без хардсаба] [RUS(ext), JAP, SUB] [2012 г., Комедия, Этти, Гарем, Романтика, Школа, Сёнен, DVDRip] Galfimbul 26354354972.45 GB 0 0 1474743716

22:01

24-Сен-16

Аниме | HD Rips ·· Любовные неприятности: Тьма (ТВ-2) / To Love-Ru: Trouble - Darkness 2nd (Оцуки Ацуси) [TV] [4 из 14] [без хардсаба] [RUS(ext), JAP+SUB] [2015 г., комедия, этти, BDRip] [720p] Galfimbul 31498093812.93 GB 0 0 1447511282

17:28

14-Ноя-15

Аниме | Rips ·· Любовные неприятности: Тьма (ТВ-2) / To Love-Ru: Trouble - Darkness 2nd (Оцуки Ацуси) [TV] [4 из 14] [без хардсаба] [RUS(ext), JAP+SUB] [2015 г., комедия, этти, BDRip] [720p] Galfimbul 29827634912.78 GB 0 0 1447511266

17:27

14-Ноя-15

Аниме | HD Rips ·· Любовные неприятности - Тьма / To Love-Ru: Trouble - Darkness [OVA] [1 из 2] [Без хардсаба] [RUS(int), JAP+SUB] [2012 г., Комедия, HDTVRip] [720p] Galfimbul 707023689674 MB 0 0 1345879080

10:18

25-Авг-12

Аниме | HD Rips ·· Любовные неприятности (ТВ-4): Тьма 2 / To Love-Ru: Trouble - Darkness 2nd (Оцуки Ацуси) [TV] [14 из 14] [без хардсаба] [RUS(ext), JAP+SUB] [2015 г., комедия, этти, BDRip] [720p] Galfimbul 1116503152410.4 GB 0 0 1471982864

23:07

23-Авг-16

Еще никто не оставлял запись к записи скачать торрент Любовные неприятности - Тьма 2 . Будь первым!

!Обратная связь