Скачать через торрент Клест Isuca бесплатно Аниме Все серии на русском torrent

Если у вас наблюдаются проблемы со скриншотами, переходом по ссылками, скачиванием торрентов - проблемы в блокировщике рекламы AdBlock. #хорошегоДня!


Статистика раздачи
Размер:  16.8 GB   |    Зарегистрирован:  2 года 2 месяца   |    .torrent скачан:  92 раза   |   
Раздают:  1  
   
Загрузка...
 
Автор Сообщение

bot

avatar bot


Клест / Isuca / イスカ

Год выпуска: 2015
Страна: Япония
Жанр: комедия, этти, романтика, школа, мистика
Продолжительность: 10 серий ~ 25 мин
Озвучка: Любительская (двуголосая)
Язык субтитров: Нет

Режиссер: Иванага Акира

Описание: Шиничиро ищет работу, чтобы отплатить счета за квартиру. Его учительница предлагает ему работать у ее знакомых, просто убираясь у тех дома. Человеком, который соглашается принять Асано, оказывается Сакуя — 37-я глава клана Шимазу, чьей работой является изгнание и уничтожение мистических существ. Шиничиро случайно выпускает одно из существ, которое некогда запечатала Сакуя. Теперь этим двоим придется работать вместе, чтобы поймать его. Здесь и начинается наша комическая история об охоте за чудовищами!

Доп. информация: General
Unique ID : 182147037612305516108478216777568770152 (0x89083E4F96323F8CB977C5F02A4E5868)
Format : Matroska
File size : 1.83 GiB
Duration : 23mn 37s
Overall bit rate : 11.1 Mbps
Encoded date : UTC 2015-09-26 13:11:00
Writing application : mkvmerge v8.3.0 ('Over the Horizon') 64bit
Writing library : libebml v1.3.1 + libmatroska v1.4.2

Качество: BDrip
Формат: MKV
: ID : 1
Format : AVC
Format/Info : Advanced Video Codec
Format profile : High 10@L4.1
Format settings, CABAC : Yes
Format settings, ReFrames : 4 frames
Format settings, GOP : M=9, N=34
Codec ID : V_MPEG4/ISO/AVC
Duration : 23mn 37s
Bit rate : 10.7 Mbps
Width : 1 920 pixels
Height : 1 080 pixels
Display aspect ratio : 16:9
Frame rate : 23.976 fps
Color space : YUV
Chroma subsampling : 4:2:0
Bit depth : 10 bits
Scan type : Progressive
Bits/(Pixel*Frame) : 0.215
Stream size : 1.76 GiB (96%)
Title : BDRip 1920x1080
Writing library : x264 core 144 r2525 40bb568
Encoding settings : cabac=1 / ref=4 / deblock=1:-2:-2 / analyse=0x3:0x133 / me=umh / subme=9 / psy=1 / psy_rd=0.70:0.00 / mixed_ref=1 / me_range=32 / chroma_me=1 / trellis=2 / 8x8dct=1 / cqm=0 / deadzone=21,11 / fast_pskip=1 / chroma_qp_offset=-2 / threads=6 / lookahead_threads=1 / sliced_threads=0 / nr=0 / decimate=0 / interlaced=0 / bluray_compat=0 / constrained_intra=0 / bframes=8 / b_pyramid=2 / b_adapt=2 / b_bias=0 / direct=3 / weightb=1 / open_gop=0 / weightp=2 / keyint=240 / keyint_min=25 / scenecut=40 / intra_refresh=0 / rc=crf / mbtree=0 / crf=16.0 / qcomp=0.60 / qpmin=8 / qpmax=38 / qpstep=4 / ip_ratio=1.40 / pb_ratio=1.30 / aq=1:1.00
Language : Japanese
Color primaries : BT.709-5, BT.1361, IEC 61966-2-4, SMPTE RP177
Transfer characteristics : BT.709-5, BT.1361
Matrix coefficients : BT.709-5, BT.1361, IEC 61966-2-4 709, SMPTE RP177
: ID : 2
Format : AC-3
Format/Info : Audio Coding 3
Mode extension : CM (complete main)
Codec ID : A_AC3
Duration : 23mn 37s
Bit rate mode : Constant
Bit rate : 192 Kbps
Channel(s) : 2 channels
Channel positions : Front: L R
Sampling rate : 48.0 KHz
Bit depth : 16 bits
Compression mode : Lossy
Stream size : 32.4 MiB (2%)
Title : Hamletka Cezarevna & 9th Unknown
Language : Russian


Трекер:  [ 29-Сен-2015 12:47 ]

  

Скачать .torrent

Размер .torrent файла 44 KB


Размер: 16.8 GB
Хэш (hash) релиза: 4d37fd0a1326cd5c7eacb1f7b03db2bb4048f9
Подписка на обновления:

Еще никто не оставлял запись к записи скачать торрент Клест Isuca . Будь первым!

!Обратная связь