Скачать через торрент Цифровые куколки Куклы-хакеры бесплатно Аниме Все серии на русском torrent

Если у вас наблюдаются проблемы со скриншотами, переходом по ссылками, скачиванием торрентов - проблемы в блокировщике рекламы AdBlock. #хорошегоДня!


Статистика раздачи
Размер:  437 MB   |    Зарегистрирован:  2 года 2 месяца   |    .torrent скачан:  4 раза   |   
Раздают:  1  
   
Загрузка...
 
Автор Сообщение

Galfimbul

avatar Galfimbul


Цифровые куколки / Куклы-хакеры / Hacka Doll The Animation
Страна: Япония
Год выпуска: 2015 г.
Тип: TV
Жанр: Приключения, комедия
Продолжительность: 12 эп. по 10 мин
Русские субтитры: Aoki Star
Русские субтитры #2: eX_fr0sT

Режиссер: Гэсо Икуо

Студия:

Описание: Промо-сериал про цифровых помощниц в вашем смартфоне.
Эти девчата всегда знают что вам посоветовать!

Качество: HDTVRip | Равка: Leopard-Raws Формат: mp4 | Тип Видео: без хардсаба
Видео кодек: AVC
Видео: AVC, 8 bits, 1280x720, 3848 kbps, 23.976 fps, (16:9)
JP - AAC, 192 kbps, 48.0 KHz, 2 ch Язык Японский
RUS - AAC, 192 kbps, 48.0 KHz, 2 ch Язык Русский (внешним файлом) двухголосый (жен+муж), Oni & Cuba77
01. Personal Entertainment AI! HackaDoll!
02. Please Let Us Be Idols!
Общее
Полное имя : D:\[Leopard-Raws]\[Leopard-Raws] Hacka Doll The Animation\[Leopard-Raws] Hacka Doll The Animation - 01 RAW (MX 1280x720 x264 AAC).mp4
Формат : MPEG-4
Профиль формата : Base Media
Идентификатор кодека : isom
Размер файла : 226 Мбайт
Продолжительность : 7 м. 49 с.
Режим общего битрейта : Переменный
Общий поток : 4043 Кбит/сек
Дата кодирования : UTC 2015-10-02 16:15:12
Дата пометки : UTC 2015-10-02 16:15:12

Видео
Идентификатор : 1
Формат : AVC
Формат/Информация : Advanced Video Codec
Профиль формата : High@L4.1
Параметр CABAC формата : Да
Параметр ReFrames формата : 4 кадра
Идентификатор кодека : avc1
Идентификатор кодека/Информация : Advanced Video Coding
Продолжительность : 7 м. 49 с.
Битрейт : 3848 Кбит/сек
Максимальный битрейт : 15,7 Мбит/сек
Ширина : 1280 пикселей
Высота : 720 пикселей
Соотношение сторон : 16:9
Режим частоты кадров : Постоянный
Частота кадров : 23,976 кадра/сек
Цветовое пространство : YUV
Субдискретизация насыщенности : 4:2:0
Битовая глубина : 8 бит
Тип развёртки : Прогрессивная
Бит/(Пиксели*Кадры) : 0.174
Размер потока : 216 Мбайт (95%)
Заголовок : 264:fps=23.976@GPAC0.5.1-DEV-rev4929
Библиотека кодирования : x264 core 129 r2245+729M 1a52e03
Настройки программы : cabac=1 / ref=4 / deblock=1:1:-1 / analyse=0x3:0x113 / me=umh / subme=9 / psy=1 / fade_compensate=0.00 / psy_rd=1.00:0.00 / mixed_ref=1 / me_range=24 / chroma_me=1 / trellis=2 / 8x8dct=1 / cqm=0 / deadzone=21,11 / fast_pskip=1 / chroma_qp_offset=-2 / threads=8 / lookahead_threads=1 / sliced_threads=0 / nr=0 / decimate=1 / interlaced=0 / bluray_compat=0 / constrained_intra=0 / fgo=0 / bframes=9 / b_pyramid=2 / b_adapt=2 / b_bias=0 / direct=1 / weightb=1 / open_gop=0 / weightp=2 / keyint=240 / keyint_min=24 / scenecut=40 / intra_refresh=0 / rc=crf / mbtree=0 / crf=18.5 / qcomp=0.72 / qpmin=0 / qpmax=69 / qpstep=4 / ip_ratio=1.40 / pb_ratio=1.30 / aq=1:0.85
Дата кодирования : UTC 2015-10-02 16:15:12
Дата пометки : UTC 2015-10-02 16:15:13
Основные цвета : BT.709
Характеристики трансфера : BT.709
Коэффициенты матрицы : BT.709

Аудио
Идентификатор : 2
Формат : AAC
Формат/Информация : Advanced Audio Codec
Профиль формата : LC
Идентификатор кодека : 40
Продолжительность : 7 м. 49 с.
Вид битрейта : Переменный
Битрейт : 192 Кбит/сек
Максимальный битрейт : 217 Кбит/сек
Каналы : 2 канала
Расположение каналов : Front: L R
Частота : 48,0 КГц
Метод сжатия : С потерями
Размер потока : 10,8 Мбайт (5%)
Язык : Japanese
Дата кодирования : UTC 2015-10-02 15:34:09
Дата пометки : UTC 2015-10-02 16:15:13


Отличия от других раздач
- [url=...5090175]этой[/url]
Универсальная раздача, субтитры+озвучка

Обновите торент файл, добавлена 2я серия и озвучка к ней

Трекер:  [ 14-Окт-2015 22:30 ]

  

Скачать .torrent

Размер .torrent файла 18 KB


Размер: 437 MB
Хэш (hash) релиза: 69e83ebf78fd6b7e3f1028e9054c0f0473f43a95
Подписка на обновления:

Еще никто не оставлял запись к записи скачать торрент Цифровые куколки Куклы-хакеры . Будь первым!

!Обратная связь