Скачать через торрент За гранью: Я буду рядом Gekijouban Kyoukai no Kanata: Ill Be Here бесплатно Аниме Все серии на русском torrent

Если у вас наблюдаются проблемы со скриншотами, переходом по ссылками, скачиванием торрентов - проблемы в блокировщике рекламы AdBlock. #хорошегоДня!


Статистика раздачи
Размер:  3.09 GB   |    Зарегистрирован:  2 года 1 месяц   |    .torrent скачан:  31 раз   |   
Раздают:  1  
   
Загрузка...
 
Автор Сообщение

Galfimbul

avatar Galfimbul


За гранью: Я буду рядом / Gekijouban Kyoukai no Kanata: I'll Be Here

Страна: Япония
Год выпуска: 2015 г.
Жанр: мистика
Тип: Movie
Продолжительность: 2 эп. по 90 мин.
Режиссер: Ишидате Тайчи
Студия: Kyoto Animation

Описание: Ёму – древние демоны и обитатели духовного мира. Кое-кто из «высших» вообще неотличим от человека, большинству же до нас нет дела. Встречаются и агрессивные особи, с которыми издавна разбираются защитники человечества. Охотники живут кланами, причем у каждого рода свои способности и боевые стили, собственные власть и влияние. При этом Охотники, Чистильщики и Оценщики, все, кто действует за гранью реальности, стараются скрыть свое существование от обычных людей, для которых отзвуки магических битв – что далекая гроза. А по сути, мир «за гранью» и устроен вроде нашего, и управляется теми же страстями!
Первый фильм является рекапом сериала. Единственная новая сцена начинается с 01:20:05.
Второй фильм рассказывает о событиях, происходящих через год после TV-сериала.

Качество: BDRip
Тип релиза: Без хардсаба
Формат видео: MР4
Наличие линковки: Нет
Релиз/Автор рипа: Ohys-Raws
Видео: H264, 1280x720, 8bits, 2471kbps, 23.976fps
Аудио: AAC, 2ch, 271kbps, 48kHz Язык Японский
Субтитры: ass, отдельным файлом Язык субтитров русский ;
Фильм первый — Перевод: Esito (ANderground team)
Фильм второй — Перевод: MantisFL ; Редактор/Оформление: Holydarkness (LeDi-MaHo Team)
Format : MPEG-4Format profile : Base MediaCodec ID : isomFile size : 1.53 GiBDuration : 1h 22mnOverall bit rate mode : VariableOverall bit rate : 2 675 Kbps

VideoID : 1Format : AVCFormat/Info : Advanced Video CodecFormat profile : Main@L4.1Format settings, CABAC : YesFormat settings, ReFrames : 4 framesCodec ID : avc1Codec ID/Info : Advanced Video CodingDuration : 1h 22mnBit rate : 2 471 KbpsMaximum bit rate : 20.2 MbpsWidth : 1 280 pixelsHeight : 720 pixelsDisplay aspect ratio : 16:9Frame rate mode : ConstantFrame rate : 23.976 fpsColor space : YUVChroma subsampling : 4:2:0Bit depth : 8 bitsScan type : ProgressiveBits/(Pixel*Frame) : 0.112Stream size : 1.42 GiB (92%)Writing library : x264 core 146 r2538 121396cEncoding settings : cabac=1 / ref=3 / deblock=1:0:0 / analyse=0x1:0x131 / me=umh / subme=9 / psy=1 / psy_rd=1.00:0.00 / mixed_ref=1 / me_range=32 / chroma_me=1 / trellis=1 / 8x8dct=0 / cqm=0 / deadzone=21,11 / fast_pskip=1 / chroma_qp_offset=-2 / threads=8 / lookahead_threads=1 / sliced_threads=0 / nr=0 / decimate=1 / interlaced=0 / bluray_compat=0 / constrained_intra=0 / bframes=3 / b_pyramid=2 / b_adapt=1 / b_bias=0 / direct=1 / weightb=1 / open_gop=0 / weightp=2 / keyint=240 / keyint_min=1 / scenecut=40 / intra_refresh=0 / rc_lookahead=40 / rc=crf / mbtree=1 / crf=17.0 / qcomp=0.60 / qpmin=0 / qpmax=69 / qpstep=4 / ip_ratio=1.40 / aq=1:1.00

AudioID : 2Format : AACFormat/Info : Advanced Audio CodecFormat profile : LCCodec ID : 40Duration : 1h 22mnBit rate mode : VariableBit rate : 201 KbpsMaximum bit rate : 254 KbpsChannel count : 2 channelsChannel positions : Front: L RSampling rate : 48.0 KHzCompression mode : LossyStream size : 118 MiB (8%)Language : Japanese
1. Прошлое
2. Будущее


Трекер:  [ 03-Ноя-2015 15:30 ]

  

Скачать .torrent

Размер .torrent файла 16 KB


Размер: 3.09 GB
Хэш (hash) релиза: 5e2d70b6c8411744b99eebc6ddad130f75f8e34d
Подписка на обновления:

Еще никто не оставлял запись к записи скачать торрент За гранью: Я буду рядом Gekijouban Kyoukai no Kanata: Ill Be Here . Будь первым!

!Обратная связь