Скачать через торрент Люпен Третий: Приключения в Италии бесплатно Аниме Все серии на русском torrent

Если у вас наблюдаются проблемы со скриншотами, переходом по ссылками, скачиванием торрентов - проблемы в блокировщике рекламы AdBlock. #хорошегоДня!


Статистика раздачи
Размер:  1.34 GB   |    Зарегистрирован:  2 года 1 месяц   |    .torrent скачан:  7 раз   |   
Раздают:  1  
   
Загрузка...
 
Автор Сообщение

Galfimbul

avatar Galfimbul


Люпен Третий: Приключения в Италии (синий пиджак)
Lupin Sansei (2015) / Lupin III (2015)
Страна: Япония
Год выпуска: 2015 г.
Жанр: приключения, комедия
Тип: TV
Продолжительность: 24 эп, ~25 мин. серия
Режиссер: Томонага Кадзухидэ
Студия:
Описание: Внук знаменитого вора-джентельмена начала XX века Люпен Третий, которого в честь деда назвали Арсеном, возможно, не так хладнокровен и элегантен, как его аристократический предок, но он компенсирует это массой хитроумных приборчиков и фантастическим везением. Вместе со своими верными товарищами метким стрелком Дзигэном и мужественным самураем Гоэмоном Арсену Люпену Третьему удаётся провернуть величайшие кражи столетия, несмотря на неотступно идущего по пятам инспектора Интерпола Дзэнигату, который посвятил свою жизнь поимке знаменитого авантюриста. Однако слабость Люпена к женскому полу и особенно к ослепительной мошеннице Фудзико зачастую приводит к потере всех добытых сокровищ. Впрочем, никогда не унывающий проходимец всегда находит выход из самых затруднительных ситуаций, оставляя всех своих врагов с носом...
Качество: HDTVRip
Тип релиза: Без хардсаба
Формат видео: MP4
Наличие линковки: Нет
Релиз/Автор рипа: [Leopard-Raws]
Видео: avc1, 1280x720, 2195 Кбит/сек, 23,976 кадра/сек, 8 бит
Аудио: AAC, 192 Кбит/сек, 48,0 КГц, 2 канала Язык Японский
Субтитры: ass, внешние Язык субтитров русский ; Перевод: Перевод: Алекс Миф Редактура: Semyon
ОбщееПолное имя : O:\Trash\Anime\My_Sharing\Lupin III Italiano (Blue Jacket)\[Leopard-Raws] Lupin Sansei (2015) - 01 RAW (NTV 1280x720 x264 AAC).mp4Формат : MPEG-4Профиль формата : Base MediaИдентификатор кодека : isomРазмер файла : 393 МбайтПродолжительность : 22 м.Режим общего битрейта : ПеременныйОбщий поток : 2391 Кбит/секДата кодирования : UTC 2015-10-02 05:00:21Дата пометки : UTC 2015-10-02 05:00:21

ВидеоИдентификатор : 1Формат : AVCФормат/Информация : Advanced Video CodecПрофиль формата : High@L4.1Параметр CABAC формата : ДаПараметр ReFrames формата : 4 кадраИдентификатор кодека : avc1Идентификатор кодека/Информация : Advanced Video CodingПродолжительность : 22 м.Битрейт : 2195 Кбит/секМаксимальный битрейт : 14,3 Мбит/секШирина : 1280 пикселейВысота : 720 пикселейСоотношение сторон : 16:9Режим частоты кадров : ПостоянныйЧастота кадров : 23,976 кадра/секЦветовое пространство : YUVСубдискретизация насыщенности : 4:2:0Битовая глубина : 8 битТип развёртки : ПрогрессивнаяБит/(Пиксели*Кадры) : 0.099Размер потока : 361 Мбайт (92%)Заголовок : 264:fps=23.976@GPAC0.5.1-DEV-rev4929Библиотека кодирования : x264 core 129 r2245+729M 1a52e03Настройки программы : cabac=1 / ref=4 / deblock=1:1:-1 / analyse=0x3:0x113 / me=umh / subme=9 / psy=1 / fade_compensate=0.00 / psy_rd=1.00:0.00 / mixed_ref=1 / me_range=24 / chroma_me=1 / trellis=2 / 8x8dct=1 / cqm=0 / deadzone=21,11 / fast_pskip=1 / chroma_qp_offset=-2 / threads=8 / lookahead_threads=1 / sliced_threads=0 / nr=0 / decimate=1 / interlaced=0 / bluray_compat=0 / constrained_intra=0 / fgo=0 / bframes=9 / b_pyramid=2 / b_adapt=2 / b_bias=0 / direct=1 / weightb=1 / open_gop=0 / weightp=2 / keyint=240 / keyint_min=24 / scenecut=40 / intra_refresh=0 / rc=crf / mbtree=0 / crf=18.5 / qcomp=0.72 / qpmin=0 / qpmax=69 / qpstep=4 / ip_ratio=1.40 / pb_ratio=1.30 / aq=1:0.85Дата кодирования : UTC 2015-10-02 05:00:21Дата пометки : UTC 2015-10-02 05:00:23Цветовой диапазон : LimitedОсновные цвета : BT.709Характеристики трансфера : BT.709Коэффициенты матрицы : BT.709

АудиоИдентификатор : 2Формат : AACФормат/Информация : Advanced Audio CodecПрофиль формата : LCИдентификатор кодека : 40Продолжительность : 22 м.Вид битрейта : ПеременныйБитрейт : 192 Кбит/секМаксимальный битрейт : 226 Кбит/секКаналы : 2 каналаРасположение каналов : Front: L RЧастота : 48,0 КГцМетод сжатия : С потерямиРазмер потока : 31,6 Мбайт (8%)Язык : JapaneseДата кодирования : UTC 2015-10-01 20:31:25Дата пометки : UTC 2015-10-02 05:00:23
01. Свадьба Люпена Третьего
02. Ложная звезда футбола
03. Шансы выжить — 0,2%
04. Пистолет под рукой
Внимание! Раздача ведётся путём добавления новых серий; при каждом добавлении создаётся новый торрент. Чтобы начать докачку новой серии, пользователям необходимо сделать следующее: (1) остановить скачивание, (2) удалить старый торрент у себя из клиента (старые серии удалять не надо), (3) скачать новый торрент и запустить его у себя в клиенте вместо старого, при этом указать клиенту путь в старую папку куда и должно происходить скачивание новых серий.
Ваш клиент при этом должен произвести хеширование (проверку) старой папки (если не производит сам - помогите ему сделать это), и будет докачивать только те серии которых у вас ещё нет. Старые серии при этом не удаляются, а продолжают раздаваться!
Если вы уже удалили старые серии, то предотвратить повторную закачку старых серий можно, убрав галочку в соответствующих местах при запуске нового торрента.
[url=...609808]Как закачать отдельный файл[/url]


Трекер:  [ 08-Ноя-2015 13:30 ]

  

Скачать .torrent

Размер .torrent файла 29 KB


Размер: 1.34 GB
Хэш (hash) релиза: 4feef0f9b973fdb019d53964cb12794053596347
Подписка на обновления:

Торренты, похожие на Люпен Третий: Приключения в Италии скачать торрент

Форум Название Автор Размер S L Добавлен
Аниме | Rips ·· Люпен Третий: Приключения в Италии / Lupin Sansei / Lupin the 3rd Part 4 [TV] [01-13 из 26] [Без хардсаба] [RUS(int), SUB] [2015 г., приключения, HDTVRip] [HWP] Galfimbul 38868264863.62 GB 0 0 1470111890

07:24

2-Авг-16

Аниме | Rips ·· Люпен Третий: Приключения в Италии / Lupin Sansei (2015) / Lupin the 3rd Part 4 [TV] [01-13 из 26] [Без хардсаба] [RUS(int), JAP, SUB] [2015 г., приключения, HDTVRip] [720p] [HD] Galfimbul 49747141764.63 GB 0 0 1470094124

02:28

2-Авг-16

Аниме | Rips ·· Люпен Третий: Приключения в Италии / Lupin Sansei (2015) / Lupin the 3rd Part 4 [TV] [01-11 из 26] [Без хардсаба] [RUS(int), SUB] [2015 г., приключения, HDTVRip] [720p] [HD] Galfimbul 42187689933.93 GB 0 0 1467291628

16:00

30-Июн-16

Аниме | Rips ·· Люпен Третий: Приключения в Италии / Lupin Sansei (2015) / Lupin the 3rd Part 4 [TV] [01-09 из 26] [Без хардсаба] [RUS(int), SUB] [2015 г., приключения, HDTVRip] [HWP] Galfimbul 26769573042.49 GB 0 0 1456706120

03:35

29-Фев-16

Аниме | Rips ·· Люпен Третий: Приключения в Италии / Lupin Sansei (2015) / Lupin the 3rd Part 4 [TV] [01-08 из 26] [Без хардсаба] [RUS(int), SUB] [2015 г., приключения, HDTVRip] [720p] [HD] Galfimbul 31305360122.92 GB 0 0 1456602082

22:41

27-Фев-16

Еще никто не оставлял запись к записи скачать торрент Люпен Третий: Приключения в Италии . Будь первым!

!Обратная связь