Скачать через торрент музыку Вива, Сапата! Смерть коммивояжера бесплатно без регистрации torrent

Если у вас наблюдаются проблемы со скриншотами, переходом по ссылками, скачиванием торрентов - проблемы в блокировщике рекламы AdBlock. #хорошегоДня!


Статистика раздачи
Размер:  257 MB   |    Зарегистрирован:  2 года 1 месяц   |    .torrent скачан:  4 раза   |   
Раздают:  1  
   
Загрузка...
 
Автор Сообщение

Galfimbul

avatar Galfimbul


Вива, Сапата! / Смерть коммивояжера // Viva Zapata! / Death Of A Salesman

Жанр: Score
Композитор: Alex North
Год выпуска диска: 2006
Год выпуска фильма: 1952 / 1966
Страна-производитель диска: США
Издатель (лейбл): Film Score Monthly
Номер по каталогу: FSM BOX01 CD8
Аудиокодек: WavPack (*.wv)
Тип рипа: image+.cue
Битрейт аудио: lossless
Продолжительность: 51:54
Источник: ослосеть
Наличие сканов в содержимом раздачи: да

Треклист:
01. Zapata And The Peons Rebel (05:02)
02. Gathering Of Forces (03:31)
03. Zapata, The Troubled Leader (04:38)
04. Zapatistas Battle Against Huerta (03:53)
05. "There's No Leader But Yourselves" (03:59)
06. Conscience (02:20)
07. Zapata Vive! (02:41)
tracks 1-7: Viva Zapata! (1952)
08. Willy (03:32)
09. Ben - Willy's Symbol of Success (03:49)
10. Linda (02:45)
11. The Boys Meet Ben (02:38)
12. Willy's Affair In Boston (02:30)
13. Good-Bye Willy (10:09)
tracks 8-13: Death Of A Salesman (1951)
Exact Audio Copy V0.99 prebeta 4 from 23. January 2008

EAC extraction logfile from 2. August 2008, 13:18

Alex North / Viva Zapata! & Death Of A Salesman

Used drive : PIONEER BD-ROM BDC-202 Adapter: 1 ID: 0

Read mode : SecureUtilize accurate stream : YesDefeat audio cache : YesMake use of C2 pointers : No

Read offset correction : 667Overread into Lead-In and Lead-Out : YesFill up missing offset samples with silence : YesDelete leading and trailing silent blocks : NoNull samples used in CRC calculations : YesUsed interface : Installed external ASPI interface

Used output format : Internal WAV RoutinesSample format : 44.100 Hz; 16 Bit; Stereo

TOC of the extracted CD

Track | Start | Length | Start sector | End sector --------------------------------------------------------- 1 | 0:00.00 | 5:03.48 | 0 | 22772 2 | 5:03.48 | 3:33.00 | 22773 | 38747 3 | 8:36.48 | 4:40.62 | 38748 | 59809 4 | 13:17.35 | 3:56.22 | 59810 | 77531 5 | 17:13.57 | 4:01.25 | 77532 | 95631 6 | 21:15.07 | 2:20.55 | 95632 | 106186 7 | 23:35.62 | 2:47.74 | 106187 | 118785 8 | 26:23.61 | 3:33.49 | 118786 | 134809 9 | 29:57.35 | 3:51.35 | 134810 | 152169 10 | 33:48.70 | 2:47.71 | 152170 | 164765 11 | 36:36.66 | 2:40.14 | 164766 | 176779 12 | 39:17.05 | 2:33.42 | 176780 | 188296 13 | 41:50.47 | 10:09.41 | 188297 | 234012

Range status and errors

Selected range

Filename F:\Discos\Alex North - Viva Zapata! & Death Of A Salesman\Viva Zapata! & Death Of A Salesman.wav

Peak level 99.3 % Range quality 100.0 % Copy CRC 1326A50A Copy OK

No errors occurred

AccurateRip summary

Track 1 not present in databaseTrack 2 not present in databaseTrack 3 not present in databaseTrack 4 not present in databaseTrack 5 not present in databaseTrack 6 not present in databaseTrack 7 not present in databaseTrack 8 not present in databaseTrack 9 not present in databaseTrack 10 not present in databaseTrack 11 not present in databaseTrack 12 not present in databaseTrack 13 not present in database

None of the tracks are present in the AccurateRip database

End of status report
REM GENRE SoundtrackREM DATE 2006REM DISCID BB0C300DREM COMMENT "ExactAudioCopy v0.99pb4"PERFORMER "Alex North"TITLE "Viva Zapata! & Death Of A Salesman"FILE "Viva Zapata! & Death Of A Salesman.wv" WAVE TRACK 01 AUDIO TITLE "Zapata And The Peons Rebel" PERFORMER "Alex North" INDEX 01 00:00:00 TRACK 02 AUDIO TITLE "Gathering Of Forces" PERFORMER "Alex North" INDEX 00 05:02:10 INDEX 01 05:03:48 TRACK 03 AUDIO TITLE "Zapata, The Troubled Leader" PERFORMER "Alex North" INDEX 00 08:34:60 INDEX 01 08:36:48 TRACK 04 AUDIO TITLE "Zapatistas Battle Against Huerta" PERFORMER "Alex North" INDEX 00 13:15:44 INDEX 01 13:17:35 TRACK 05 AUDIO TITLE "'There's No Leader But Yourselves'" PERFORMER "Alex North" INDEX 00 17:11:25 INDEX 01 17:13:57 TRACK 06 AUDIO TITLE "Conscience" PERFORMER "Alex North" INDEX 00 21:13:05 INDEX 01 21:15:07 TRACK 07 AUDIO TITLE "Zapata Vive!" PERFORMER "Alex North" INDEX 01 23:35:62 TRACK 08 AUDIO TITLE "Willy" PERFORMER "Alex North" INDEX 00 26:17:69 INDEX 01 26:23:61 TRACK 09 AUDIO TITLE "Ben - Willy's Symbol Of Success" PERFORMER "Alex North" INDEX 00 29:56:04 INDEX 01 29:57:35 TRACK 10 AUDIO TITLE "Linda" PERFORMER "Alex North" INDEX 00 33:46:62 INDEX 01 33:48:70 TRACK 11 AUDIO TITLE "The Boys Meet Ben" PERFORMER "Alex North" INDEX 00 36:35:01 INDEX 01 36:36:66 TRACK 12 AUDIO TITLE "Willy's Affair In Boston" PERFORMER "Alex North" INDEX 00 39:15:01 INDEX 01 39:17:05 TRACK 13 AUDIO TITLE "Good-Bye Willy" PERFORMER "Alex North" INDEX 00 41:48:07 INDEX 01 41:50:47


Трекер:  [ 08-Ноя-2015 13:30 ]

  

Скачать .torrent

Размер .torrent файла 11 KB


Размер: 257 MB
Хэш (hash) релиза: a3fec626d70fdead47572a06d1952b362e40bcff

Торренты, похожие на Вива, Сапата! Смерть коммивояжера скачать торрент

Форум Название Автор Размер S L Добавлен
Саундтреки к фильмам и мультфильмам (mp3) ·· (Score) Вива, Сапата! / Смерть коммивояжера // Viva Zapata! / Death Of A Salesman (by Alex North) - 2006 (1952, 1966), MP3, 320 kbps Galfimbul 130578638125 MB 0 0 1446984519

15:08

8-Ноя-15

Еще никто не оставлял запись к записи скачать торрент Вива, Сапата! Смерть коммивояжера . Будь первым!

!Обратная связь