Скачать через торрент Небесный метод Sora no Method бесплатно Аниме Все серии на русском torrent

Если у вас наблюдаются проблемы со скриншотами, переходом по ссылками, скачиванием торрентов - проблемы в блокировщике рекламы AdBlock. #хорошегоДня!


Статистика раздачи
Размер:  8.09 GB   |    Зарегистрирован:  2 года   |    .torrent скачан:  32 раза   |   
Раздают:  1  
   
Загрузка...
 
Автор Сообщение

Galfimbul

avatar Galfimbul



Год выпуска: 2014
Страна: Япония
Жанр: повседневность, мистика
Продолжительность: ТВ, 13 эп. по 24 мин. + 1 спешл
Выпуск: c 05.10.2014 по 28.12.2014
Перевод:
<ol class="post-ul">
русские субтитры от anipaladin & Fukassei (полные/вспомогательные) [TV]
русские субтитры от LookerA (полные/вспомогательные) [SP]
</ol>
Режиссер: Сакой Масаюки
Студия: Studio 3Hz
Описание:
12-летняя Нонока Комия вернулась в город, откуда когда-то уехала после смерти матери. Темнозерск – город небольшой, но знаменитый тем, что уже семь лет над озером висит… самая настоящая летающая тарелка! С другой стороны, висит и висит, никого же не трогает, и местная жизнь после изначального ажиотажа и наплыва туристов давно вернулась в прежнее тихое русло. Так что хозяйственная девушка принялась разбирать вещи – и столкнулась в собственной комнате с синеволосой незнакомкой по имени Ноэль, которая, наоборот, утверждает, что хорошо с ней знакома!

А кроме малышки Ноэль, в скором времени Нонока познакомилась уже со своими ровесниками - энергичной Юдзуки (что в вечной ссоре с собственным братом-близнецом Сотой), дружелюбной Кохару и на редкость нелюдимой Сионэ. Слово за словом, поступок за поступком – и выяснилось, что Комия одним своим появлением разворошила на редкость запутанный клубок судеб и воспоминаний, связавший всех юных героев этой истории. Из такого положения есть два выхода: фантастический – если ребята сами разберутся, и реалистический – когда вся надежда на летающее блюдце!
© Hollow, World Art

Название сериала дословно значит «небесный метод» и подразумевает достижение целей с помощью внешнего вмешательства. Темное озеро (или озеро Кирия) создано на основе озера Тоя на острое Хоккайдо. Темнозерск – это, соответственно, близлежащий город Тояко, где проходил саммит «Большой восьмерки» 2008 года.
Информационные ссылки: AniDB || World Art || MAL
Качество: BDRip
Энкод: Winter - RG Pantheon
Тип видео: без хардсаба, без линковки
Формат: mkv
Видео: x264 (Hi10p), 1280x720, ~3200 Kbps, 23.976 fps
Аудио JAP: Vorbis, 48000Hz, ~256 Kbps, 2ch
Аудио RUS 1: AC3, 48000Hz, ~192 Kbps, 2ch (внешними файлами)
<ol class="post-ul">
многоголосая от SHIZA
участники: GreyMoon, Aska, Hekomi, NesTea
</ol>
01. Saucer City
02. Their Promise
03. Where Memories Live
04. A Fragment of Emotions
05. Flower of Light
06. True Friends
07. What I Lost
08. What She Believes
09. The Meaning of Goodbye
10. Where Wishes Go
11. Night of the Meteor Shower
12. Saucerless City
13. From the Starting Sky
[url]...4839859[/url]
[url]...4839044[/url]
- BDRip
Общее
Уникальный идентификатор : 222694465360971664618483543305319160015 (0xA78964D884918B7A93062D70B47918CF)
Полное имя : A:\Anime\NEW\Sora no Method [BD] [720p]\[W] Sora no Method 01 [BDrip 1280x720 x264 Vorbis].mkv
Формат : Matroska
Версия формата : Version 2
Размер файла : 612 Мбайт
Продолжительность : 23 м.
Режим общего битрейта : Переменный
Общий поток : 3608 Кбит/сек
Дата кодирования : UTC 2015-11-22 08:20:35
Программа кодирования : mkvmerge v2.9.8 ('C'est le bon') built on Aug 13 2009 12:49:06
Библиотека кодирования : libebml v0.7.7 + libmatroska v0.8.1

Видео
Идентификатор : 1
Формат : AVC
Формат/Информация : Advanced Video Codec
Профиль формата : High 10@L4.1
Параметр CABAC формата : Да
Параметр ReFrames формата : 9 кадров
Идентификатор кодека : V_MPEG4/ISO/AVC
Продолжительность : 23 м.
Битрейт : 3280 Кбит/сек
Ширина : 1280 пикселей
Высота : 720 пикселей
Соотношение сторон : 16:9
Режим частоты кадров : Постоянный
Частота кадров : 23,976 кадра/сек
Цветовое пространство : YUV
Субдискретизация насыщенности : 4:2:0
Битовая глубина : 10 бит
Тип развёртки : Прогрессивная
Бит/(Пиксели*Кадры) : 0.148
Размер потока : 557 Мбайт (91%)
Библиотека кодирования : x264 core 132 r2309 3b1f1f7
Настройки программы : cabac=1 / ref=9 / deblock=1:-2:-2 / analyse=0x3:0x133 / me=umh / subme=9 / psy=1 / psy_rd=0.90:0.00 / mixed_ref=1 / me_range=24 / chroma_me=1 / trellis=2 / 8x8dct=1 / cqm=0 / deadzone=21,11 / fast_pskip=1 / chroma_qp_offset=-2 / threads=12 / lookahead_threads=2 / sliced_threads=0 / nr=0 / decimate=0 / interlaced=0 / bluray_compat=0 / constrained_intra=0 / bframes=8 / b_pyramid=2 / b_adapt=2 / b_bias=0 / direct=1 / weightb=1 / open_gop=0 / weightp=2 / keyint=250 / keyint_min=23 / scenecut=40 / intra_refresh=0 / rc=crf / mbtree=0 / crf=15.7 / qcomp=0.70 / qpmin=9 / qpmax=42 / qpstep=4 / ip_ratio=1.40 / pb_ratio=1.30 / aq=1:0.90
Default : Нет
Forced : Нет

Аудио
Идентификатор : 2
Формат : Vorbis
Параметр Floor формата : 1
Идентификатор кодека : A_VORBIS
Продолжительность : 23 м.
Вид битрейта : Переменный
Битрейт : 256 Кбит/сек
Каналы : 2 канала
Частота : 48,0 КГц
Метод сжатия : С потерями
Размер потока : 43,4 Мбайт (7%)
Библиотека кодирования : libVorbis (Schaufenugget) (20101101 (Schaufenugget))
Язык : Japanese
Default : Да
Forced : Нет


<ol class="post-ul">
Выбор видео, перевода, озвучки, а также типа сборки материала осуществляется релизером и не подлежит обсуждению. Если вы считаете, что раздаваемый материал противоречит правилам раздела "Аниме" rutracker.org, сообщите об этом одному из модераторов раздела.

В случае появления нового материала или же лучшего по качеству материала релизер оставляет за собой право обновить раздачу. В этом случае вам необходимо ознакомиться с изменениями (добавлениями) и перекачать торрент.

Данный релиз предназначен для просмотра на ПК. Воспроизведение на иных проигрывателях не гарантируется. Для просмотра рекомендуется Media Player Classic с установленным пакетом кодеков K-Lite.

Данный релиз содержит 10-битное видео (Hi10p). Для корректного воспроизведения обязательно используйте кодеки, поддерживающие 10-битное видео.
Обсудить частные случаи проблем с воспроизведением и получить дополнительную информацию можно [url=...3682344][b]здесь[/url].

Данный релиз предназначен для просмотра с внешними субтитрами и внешними звуковыми дорожками.
<ol class="post-ul">
Для просмотра с внешней звуковой дорожкой нужно:
перекинуть файлы .mka из папки "RUS Sound [<автор(ы) озвучки>]" в одну папку с видео и переключить звуковую дорожку в плеере при просмотре. Как это сделать в разных плеерах подробно описано [url=...2403326]здесь[/url].
Для просмотра с субтитрами нужно:
перекинуть файлы .ass из папки "RUS Subtitles [<автор(ы) перевода>]" в одну папку с видео - плеер подгрузит их автоматически при открытии видео.
</ol>

Если у вас возникли проблемы с просмотром, не связанные с описанным выше, сообщите о них автору раздачи посредством сообщения в теме или ЛС Aglenn.
</ol>


Трекер:  [ 22-Ноя-2015 22:30 ]

  

Скачать .torrent

Размер .torrent файла 46 KB


Размер: 8.09 GB
Хэш (hash) релиза: efe8b3c726bc999e6924d45ab49573b5f390019c
Подписка на обновления:

Еще никто не оставлял запись к записи скачать торрент Небесный метод Sora no Method . Будь первым!

!Обратная связь