Скачать через торрент Школьная жизнь! Gakkougurashi! бесплатно Аниме Все серии на русском torrent

Если у вас наблюдаются проблемы со скриншотами, переходом по ссылками, скачиванием торрентов - проблемы в блокировщике рекламы AdBlock. #хорошегоДня!


Статистика раздачи
Размер:  1.85 GB   |    Зарегистрирован:  2 года   |    .torrent скачан:  11 раз   |   
Раздают:  1  
   
Загрузка...
 
Автор Сообщение

Galfimbul

avatar Galfimbul


Школьная жизнь! / Gakkougurashi! / Gakkou Gurashi! / School-Live!
Год выпуска: 2015
Страна: Япония
Жанр: комедия, повседневность, школа, ужасы
Продолжительность: ТВ, 12 эп. по 25 мин.
Озвучка: Нет
Cубтитры: Русские от Elven_Tankman, Nachtwandler, Surokune [Timecraft]
Режиссер: Андо Масаоми
Студия: Lerche

Описание:
Сюжет повествует о трех школьницах живущих в школе и состоящих в клубе Школьной жизни. Школа эта находится в полуразрушенном состоянии и населена преимущественно агрессивными зомби. В схожем состоянии находится и прилегающий город. Однако, одна из героинь, Юки Такэя не замечает окружающей действительности. Ей мерещится что школа все еще цела и наполнена самыми обычными учениками. Видя ее состояние, подруги подыгрывают иллюзиям Юки.
Доп. информация: Оф. сайт | AniDB | World Art | MAL
Качество: BDRip (Source: [url=...5112811]BDRemux[/url], большое спасибо antiBILLotic)

Автор рипа: Wrnr [tRuAVC]
Формат: MKV
Тип видео: без хардсаба, без линковки
Видео: x264 (Hi10p), 1280x720, ~2125-2509 Kbps, 23.976 fps
Аудио JAP: Vorbis, 48kHz, 256 Kbps, 2ch
Субтитры RUS: ASS, внешние от [Timecraft]
1. Beginning
2. Memories
3. That Time
4. Outing
5. Meeting
6. Welcome
7. A Letter
8. Future
9. Holiday
10. Rainy Day
11. Scar
12. Graduation
2 эпизод:

x264 [info]: frame I:265   Avg QP:24.59  size:131035
x264 [info]: frame P:6803  Avg QP:25.51  size: 31744
x264 [info]: frame B:27840 Avg QP:26.39  size:  5163
x264 [info]: consecutive B-frames:  1.9%  2.1%  4.0% 17.5% 10.9% 39.9%  7.8%  5.1%  2.9%  1.6%  1.0%  2.3%  0.7%  0.9%  0.3%  0.4%  0.6%
x264 [info]: mb I  I16..4:  6.8% 66.3% 26.9%
x264 [info]: mb P  I16..4:  1.3%  5.8%  1.9%  P16..4: 46.4% 14.1% 16.3%  0.5%  0.2%    skip:13.4%
x264 [info]: mb B  I16..4:  0.0%  0.2%  0.1%  B16..8: 26.6%  3.3%  1.0%  direct: 3.5%  skip:65.3%  L0:43.6% L1:51.3% BI: 5.1%
x264 [info]: 8x8 transform intra:64.5% inter:67.7%
x264 [info]: direct mvs  spatial:100.0% temporal:0.0%
x264 [info]: coded y,uvDC,uvAC intra: 82.7% 89.5% 71.2% inter: 10.8% 21.5% 3.3%
x264 [info]: i16 v,h,dc,p: 31% 27%  7% 36%
x264 [info]: i8 v,h,dc,ddl,ddr,vr,hd,vl,hu: 10%  7%  4% 12% 16% 15% 14% 11% 12%
x264 [info]: i4 v,h,dc,ddl,ddr,vr,hd,vl,hu: 16%  9%  4% 11% 15% 13% 11% 11% 10%
x264 [info]: i8c dc,h,v,p: 38% 19% 20% 23%
x264 [info]: Weighted P-Frames: Y:4.2% UV:3.3%
x264 [info]: ref P L0: 49.7% 21.4%  9.5%  6.1%  3.8%  4.3%  2.8%  2.1%  0.2%  0.0%
x264 [info]: ref B L0: 61.8% 15.4%  8.3%  4.9%  3.4%  3.5%  1.9%  0.8%
x264 [info]: ref B L1: 90.7%  9.3%
x264 [info]: kb/s:2167.24
General
Unique ID                   : 235417035651539803484841679765623934760 (0xB11BABFD938AA6349F2027D010960F28)
Complete name               : Gakkou Gurashi! [BDRip 720p] [tRuAVC]\Gakkou Gurashi!  E02 - Memories.mkv
Format                      : Matroska
Format version              : Version 4 / Version 2
File size                   : 415 MiB
Duration                    : 24mn 16s
Overall bit rate mode       : Variable
Overall bit rate            : 2 389 Kbps
Movie name                  : Episode 2:  Memories
Encoded date                : UTC 2015-11-22 13:18:32
Writing application         : mkvmerge v7.9.0 ('Birds') 64bit
Writing library             : libebml v1.3.1 + libmatroska v1.4.2
DURATION                    : 00:24:16.005000000
NUMBER_OF_FRAMES            : 143814
NUMBER_OF_BYTES             : 39894150
_STATISTICS_WRITING_APP     : mkvmerge v7.9.0 ('Birds') 64bit
_STATISTICS_WRITING_DATE_UT : 2015-11-22 13:18:32
_STATISTICS_TAGS            : BPS DURATION NUMBER_OF_FRAMES NUMBER_OF_BYTES

Video
ID                          : 1
Format                      : AVC
Format/Info                 : Advanced Video Codec
Format profile              : High 10@L4.0
Format settings, CABAC      : Yes
Format settings, ReFrames   : 9 frames
Codec ID                    : V_MPEG4/ISO/AVC
Duration                    : 24mn 15s
Bit rate                    : 2 086 Kbps
Width                       : 1 280 pixels
Height                      : 720 pixels
Display aspect ratio        : 16:9
Frame rate mode             : Constant
Frame rate                  : 23.976 fps
Color space                 : YUV
Chroma subsampling          : 4:2:0
Bit depth                   : 10 bits
Scan type                   : Progressive
Bits/(Pixel*Frame)          : 0.094
Stream size                 : 362 MiB (87%)
Title                       : by Wrnr
Writing library             : x264 core 148 r2638kMod 7599210
Encoding settings           : cabac=1 / ref=9 / deblock=1:-2:-2 / analyse=0x3:0x133 / me=umh / subme=9 / psy=1 / fade_compensate=0.00 / psy_rd=0.90:0.00 / mixed_ref=1 / me_range=24 / chroma_me=1 / trellis=2 / 8x8dct=1 / cqm=0 / deadzone=21,11 / fast_pskip=0 / chroma_qp_offset=-2 / threads=3 / lookahead_threads=1 / sliced_threads=0 / nr=0 / decimate=1 / interlaced=0 / bluray_compat=0 / constrained_intra=0 / fgo=0 / bframes=16 / b_pyramid=2 / b_adapt=2 / b_bias=0 / direct=3 / weightb=1 / open_gop=0 / weightp=2 / keyint=250 / keyint_min=23 / scenecut=40 / intra_refresh=0 / rc_lookahead=60 / rc=crf / mbtree=0 / crf=17.0000 / qcomp=0.70 / qpmin=0 / qpmax=81 / qpstep=4 / vbv_maxrate=50000 / vbv_bufsize=62500 / crf_max=0.0 / nal_hrd=none / filler=0 / ip_ratio=1.40 / pb_ratio=1.30 / aq=1:0.90
Language                    : Japanese
Default                     : Yes
Forced                      : No
DURATION                    : 00:24:15.955000000
NUMBER_OF_FRAMES            : 34908
NUMBER_OF_BYTES             : 394425644
_STATISTICS_WRITING_APP     : mkvmerge v7.9.0 ('Birds') 64bit
_STATISTICS_WRITING_DATE_UT : 2015-11-22 13:18:32
_STATISTICS_TAGS            : BPS DURATION NUMBER_OF_FRAMES NUMBER_OF_BYTES

Audio
ID                          : 2
Format                      : Vorbis
Format settings, Floor      : 1
Codec ID                    : A_VORBIS
Duration                    : 24mn 16s
Bit rate mode               : Variable
Bit rate                    : 256 Kbps
Channel(s)                  : 2 channels
Sampling rate               : 48.0 KHz
Compression mode            : Lossy
Stream size                 : 44.4 MiB (11%)
Writing library             : aoTuV Beta 6.03  (UTC 2011-04-24)
Language                    : Japanese
Default                     : Yes
Forced                      : No

Menu
00:00:00.000                : en:00:24:15.954
00:01:38.014                : en:00:25:53.969
00:03:07.979                : en:00:27:23.934
00:12:10.980                : en:00:36:26.935
00:22:30.015                : en:00:46:45.970
00:23:59.980                : en:00:48:15.935
[url]...5050972[/url]
[url]...5040756[/url]
[url]...5088710[/url]

- BDRip

Релиз от группы

Трекер:  [ 24-Ноя-2015 19:00 ]

  

Скачать .torrent

Размер .torrent файла 21 KB


Размер: 1.85 GB
Хэш (hash) релиза: 03d67ca89954f1c6e0a25bbcd8a66fe01736af22
Подписка на обновления:

Еще никто не оставлял запись к записи скачать торрент Школьная жизнь! Gakkougurashi! . Будь первым!

!Обратная связь