Скачать через торрент Буквоежка Литературная барышня бесплатно Аниме Все серии на русском torrent

Если у вас наблюдаются проблемы со скриншотами, переходом по ссылками, скачиванием торрентов - проблемы в блокировщике рекламы AdBlock. #хорошегоДня!


Статистика раздачи
Размер:  7.76 GB   |    Зарегистрирован:  2 года   |    .torrent скачан:  11 раз   |   
Раздают:  1  
   
Загрузка...
 
Автор Сообщение

Galfimbul

avatar Galfimbul


Буквоежка / Литературная барышня (фильм) / Gekijouban Bungaku Shoujo
Страна: Япония
Год выпуска: 2010
Жанр: драма, романтика
Тип: Movie
Продолжительность: 101 мин
Озвучка:
Дубляж Реанимедия
Многоголосная AniDUB участники: (OSLIKt, Trina_D, NikaLenina, Chihiro & Kapets)
Двухголосная (муж./жен.) Eladiel & Lupin
Субтитры: есть
русские (внешние) ASS полные/надписи
Dreamers Team
Переводчик/Перевод песен: junnes, Редактор: shootnik, Редактор/Оформление: Amarillis
английские (встроенные) ASS Golo
Студия:
Режиссер: Тада Сюнсукэ
Описание: Главный герой — Коноха Иноуэ — выглядит обычным старшеклассником. Его школьная жизнь могла бы показаться совершенно неинтересной, если бы не хранимый им секрет — он хотел стать писателем — автором женских романтических бестселлеров. Однако после одного неприятного эпизода, произошедшего два года назад, он поклялся себе никогда больше не писать. Все меняется, когда он переходит в новую школу. Президент литературного кружка Токо Амано буквально вынуждает его вступить в клуб. Токо питается книгами, поэтому теперь каждый день после занятий Коноха пишет для нее новую литературную пищу.
© World Art
Звуковая дорожка #1,4
Качество: BDRip
Релиз/Автор рипа: Golo
Совместимость с бытовыми плеерами: Нет
Наличие линковки: Нет
Тип видео: без хардсаба
Формат: MKV
Видео: x264, 1920х1080, (16/9), ~8330кбит/с, 23,976fps, 10 bit
Аудио #1 (внешняя) русская - DTS, 6 ch, 1152кбит/с, 48000Hz Реанимедия
Аудио #2 (внешняя) русская - AC3, 2 ch, 320кбит/с, 48000Hz AniDUB
Аудио #3 (внешняя) русская - AAC, 2 ch, 385кбит/с, 48000Hz Eladiel & Lupin
Аудио #4 (в контейнере) японская - AC3, 3 ch, 640кбит/с, 48000Hz
* Чтобы смотреть с озвучкой, необходимо из папки [Eladiel & Lupin] переписать файлы в папку, где находятся видеофайлы. Далее, следует запустить плеер и переключиться на mka-дорожку. Подробное описание [url=...2403326]здесь[/url]
* Чтобы смотреть 10-битное видео (10bit), необходимо, исходя из ваших предпочтений используемого проигрывателя, воспользоваться
[url=...3682344]этой инструкцией.[/url]
* Чтобы смотреть с субтитрами, необходимо из папки к примеру Rus subs [Dreamers Team] переписать файлы в папку, где находятся видеофайлы. В большинстве плееров, одноимённые субтитры подключатся автоматически.

[url=...5120264]#1 Буквоежка OVA-1 - OVA (1 эп.), адаптация ранобэ, 2009[/url]
#2 Буквоежка (фильм) - п/ф, адаптация ранобэ, 2010
[url=...5120604]#3 Буквоежка OVA-2 - OVA (3 эп.), адаптация ранобэ, 2010[/url]

[url]...3296143[/url] - наличие озвучки
[url]...3357753[/url] - BDRip
[url]...3484227[/url] - лучше качество видео
Сравнения:
http://screenshotcomparison.com/comparison/151627
http://screenshotcomparison.com/comparison/151628
[url]...3981365[/url] - частично лучшее качество видео
Сравнения:
http://screenshotcomparison.com/comparison/151629
http://screenshotcomparison.com/comparison/151630
[url]...4820828[/url]
[url]...4378922[/url]
- 1080p


Общее
Уникальный идентификатор : 202173762628218791926907864214160216108 (0x9819401661A06F44B78D79546B67102C)
Полное имя : I:\Torrentor SEED\Gekijouban Bungaku Shoujo [BDRip 1080p]\[Golo] Gekijouban Bungaku Shoujo [BD][1920x1080].mkv
Формат : Matroska
Версия формата : Version 2
Размер файла : 6,45 Гбайт
Продолжительность : 1 ч. 40 м.
Общий поток : 9154 Кбит/сек
Дата кодирования : UTC 2015-11-13 16:22:17
Программа кодирования : mkvmerge v2.9.7 ('Tenderness') built on Jul 1 2009 18:43:35
Библиотека кодирования : libebml v0.7.7 + libmatroska v0.8.1
Attachment : Yes / Yes / Yes / Yes / Yes / Yes / Yes / Yes / Yes / Yes / Yes / Yes / Yes / Yes / Yes / Yes / Yes / Yes / Yes

Видео
Идентификатор : 1
Формат : AVC
Формат/Информация : Advanced Video Codec
Профиль формата : High 10@L4.0
Параметр CABAC формата : Да
Параметр ReFrames формата : 4 кадра
Идентификатор кодека : V_MPEG4/ISO/AVC
Продолжительность : 1 ч. 40 м.
Битрейт : 8332 Кбит/сек
Ширина : 1920 пикселей
Высота : 1080 пикселей
Соотношение сторон : 16:9
Режим частоты кадров : Постоянный
Частота кадров : 23,976 кадра/сек
Цветовое пространство : YUV
Субдискретизация насыщенности : 4:2:0
Битовая глубина : 10 бит
Тип развёртки : Прогрессивная
Бит/(Пиксели*Кадры) : 0.168
Размер потока : 5,87 Гбайт (91%)
Заголовок : Gekijouban Bungaku Shoujo
Библиотека кодирования : x264 core 140 r2377+40 929f149 tMod [10-bit@all X86_64]
Настройки программы : cabac=1 / ref=4 / deblock=1:-2:-2 / analyse=0x3:0x133 / me=umh / subme=10 / psy=1 / fade_compensate=0.80 / psy_rd=0.80:0.10 / mixed_ref=1 / me_range=32 / chroma_me=1 / trellis=2 / 8x8dct=1 / cqm=0 / deadzone=21,11 / fast_pskip=0 / chroma_qp_offset=-3 / threads=9 / lookahead_threads=1 / sliced_threads=0 / nr=0 / decimate=0 / interlaced=0 / bluray_compat=0 / constrained_intra=0 / fgo=0 / bframes=8 / b_pyramid=2 / b_adapt=2 / b_bias=0 / direct=3 / weightb=1 / open_gop=0 / weightp=2 / keyint=250 / keyint_min=23 / scenecut=40 / intra_refresh=0 / rc_lookahead=80 / rc=crf / mbtree=1 / crf=16.0000 / qcomp=0.80 / qpmin=0:0:0 / qpmax=42:42:42 / qpstep=4 / ip_ratio=1.40 / aq=3:0.80 / aq-sensitivity=10.00 / aq-factor=1.00:1.00:1.00 / aq2=0 / aq3=0
Default : Да
Forced : Нет
Коэффициенты матрицы : BT.709

Аудио
Идентификатор : 2
Формат : AC-3
Формат/Информация : Audio Coding 3
Расширение режима : CM (complete main)
Параметр Endianness формата : Big
Идентификатор кодека : A_AC3
Продолжительность : 1 ч. 40 м.
Вид битрейта : Постоянный
Битрейт : 640 Кбит/сек
Каналы : 3 канала
Расположение каналов : Front: L C R
Частота : 48,0 КГц
Битовая глубина : 16 бит
Метод сжатия : С потерями
Размер потока : 462 Мбайт (7%)
Заголовок : Jpn - 3.0 (AC3)
Язык : Japanese
Default : Да
Forced : Нет

Текст
Идентификатор : 3
Формат : ASS
Идентификатор кодека : S_TEXT/ASS
Идентификатор кодека/Информация : Advanced Sub Station Alpha
Метод сжатия : Без потерь
Заголовок : Eng (ASS)
Язык : English
Default : Да
Forced : Нет



Трекер:  [ 28-Ноя-2015 20:00 ]

  

Скачать .torrent

Размер .torrent файла 20 KB


Размер: 7.76 GB
Хэш (hash) релиза: 25c4bf1ea068ed15cfff90e24fde2f5431523c1f
Подписка на обновления:

Еще никто не оставлял запись к записи скачать торрент Буквоежка Литературная барышня . Будь первым!

!Обратная связь