Скачать через торрент Безграничный фафнир Juuou Mujin no Fafnir бесплатно Аниме Все серии на русском torrent

Если у вас наблюдаются проблемы со скриншотами, переходом по ссылками, скачиванием торрентов - проблемы в блокировщике рекламы AdBlock. #хорошегоДня!


Статистика раздачи
Размер:  85.35 GB   |    Зарегистрирован:  2 года   |    .torrent скачан:  13 раз   |   
Раздают:  1  
   
Загрузка...
 
Автор Сообщение

Galfimbul

avatar Galfimbul


Безграничный фафнир / Juuou Mujin no Fafnir

Год выпуска: 2015
Страна: Япония
Жанр: фэнтези, школа
Тип: TV
Продолжительность: 12 эп. по 24 мин.
Озвучка:
<ol class="post-ul">
Двухголосая (муж/жен) от Hope & Ruri (SHIZA)
</ol>

Русские субтитры: есть (отдельным файлом, формат .ass)
Перевод:
<ol class="post-ul">
Gerale, Komugi-chan
</ol>
Хардсаб: Нет
Режиссер: Кусакава Кэйдзё
Студия: Diomedea

Описание: С внезапным появлением монстров, впоследствии именуемыми драконами, мир изменился до неузнаваемости. Кроме того, вскоре после этого на свет стали появляться девушки, наделённые силой, с помощью которой они способны управлять драконами и которую назвали «Д». Для таких особенных девушек была создана специальная женская академия Мидгар.

Туда поступает и главный герой, Ю Мононобэ — единственный парень, обладающий «Д», чьё существование и способности держатся в глубоком секрете. Но в первый же день с ним случается конфуз: он сталкивается с одной из учениц по имени Ирис и лицезрит её в чём мать родила. А немногим позже он выясняет, что здесь также учится и Мицуки, его младшая сестра, с которой они были разлучены ещё в детстве.
© mad1van

Качество: Blu-Ray Remux
Формат: MKV
Видео кодек: AVC
Аудио кодек: TrueHD, AC3
Видео: 1920x1080 (16:9) 23,976 fps ~37,3 Mbps 8bit
Аудио:
Jap 1 TrueHD, 96000Hz, ~1000 kbps 2ch
Jap 2 AC3, 48000Hz, ~640 kbps 2ch
RUS (ext) AC3, 48000Hz, ~192 Kbps, 2ch

Русская озвучка и субтитры взяты из [url=...5076680]этой[/url] раздачи.
Чаптеры присутствуют.
01. Земля Драконов
02. Белый Левиафан
03. Ужасающий Фафнир
04. Дракон Тиа
05. Пылающий Муспельхейм
06. Алокрылый Тиамат
07. Алая невинность
08. Атака Василиска
09. Фронт в далёких водах
10. Красная Катастрофа
11. Западня Мистлтейнна
12. Безграничный Фафнир
Общее
Уникальный идентификатор : 201257340169897485690382619821208572918 (0x9768C0F8C7E0DD75981AF75878D113F6)
Полное имя : M:\pub\Video\Anime\Juuou Mujin no Fafnir\[anti-raws]Juuou Mujin no Fafnir ep.01[BDRemux].mkv
Формат : Matroska
Версия формата : Version 4 / Version 2
Размер файла : 6,75 Гбайт
Продолжительность : 24 м.
Режим общего битрейта : Переменный
Общий поток : 39,9 Мбит/сек
Дата кодирования : UTC 2015-12-05 10:16:10
Программа кодирования : mkvmerge v8.5.2 ('Crosses') 64bit
Библиотека кодирования : libebml v1.3.3 + libmatroska v1.4.4

Видео
Идентификатор : 1
Формат : AVC
Формат/Информация : Advanced Video Codec
Профиль формата : High@L4.1
Параметр CABAC формата : Да
Параметр ReFrames формата : 4 кадра
Идентификатор кодека : V_MPEG4/ISO/AVC
Продолжительность : 24 м.
Вид битрейта : Постоянный
Битрейт : 39,0 Мбит/сек
Ширина : 1920 пикселей
Высота : 1080 пикселей
Соотношение сторон : 16:9
Режим частоты кадров : Постоянный
Частота кадров : 23,976 (24000/1001) кадра/сек
Цветовое пространство : YUV
Субдискретизация насыщенности : 4:2:0
Битовая глубина : 8 бит
Тип развёртки : Прогрессивная
Бит/(Пиксели*Кадры) : 0.784
Размер потока : 6,46 Гбайт (96%)
Default : Нет
Forced : Нет
Цветовой диапазон : Limited
Основные цвета : BT.709
Характеристики трансфера : BT.709
Коэффициенты матрицы : BT.709

Аудио #1
Идентификатор : 2
Формат : TrueHD
Идентификатор кодека : A_TRUEHD
Продолжительность : 24 м.
Вид битрейта : Переменный
Битрейт : 1009 Кбит/сек
Максимальный битрейт : 1410 Кбит/сек
Каналы : 2 канала
Расположение каналов : Front: C
Частота : 96,0 КГц
Частота кадров : 2400,000 кадров/сек (40 spf)
Метод сжатия : Без потерь
Размер потока : 175 Мбайт (3%)
Заголовок : TrueHD
Язык : Japanese
Default : Да
Forced : Нет

Аудио #2
Идентификатор : 3
Формат : AC-3
Формат/Информация : Audio Coding 3
Профиль формата : Dolby Digital
Расширение режима : CM (complete main)
Параметр Endianness формата : Big
Идентификатор кодека : A_AC3
Продолжительность : 24 м.
Вид битрейта : Постоянный
Битрейт : 640 Кбит/сек
Каналы : 2 канала
Расположение каналов : Front: L R
Частота : 48,0 КГц
Частота кадров : 31,250 кадров/сек (1536 spf)
Метод сжатия : С потерями
Размер потока : 111 Мбайт (2%)
Заголовок : AC3
Язык : Japanese
Default : Нет
Forced : Нет

Меню
00:00:00.000 : en:00:00:00.000
00:01:39.016 : en:00:01:39.016
00:03:08.980 : en:00:03:08.980
00:11:25.977 : en:00:11:25.977
00:22:10.955 : en:00:22:10.955
00:23:40.961 : en:00:23:40.961
00:24:12.993 : en:00:24:12.993
[url]...5032876[/url]
[url]...5110470[/url]
[url]...5076680[/url]
--BDRip

Эта раздача - BDRemux


Трекер:  [ 05-Дек-2015 17:30 ]

  

Скачать .torrent

Размер .torrent файла 119 KB


Размер: 85.35 GB
Хэш (hash) релиза: bb9d6cbbf160c5a8369cbeb20361d3bf7471171f
Подписка на обновления:

Торренты, похожие на Безграничный фафнир Juuou Mujin no Fafnir скачать торрент

Форум Название Автор Размер S L Добавлен
Аниме | HD Rips ·· Безграничный фафнир / Juuou Mujin no Fafnir / Unlimited Fafnir (Кусакава Кэйдзё) [TV] [12 из 12] [без хардсаба] [RUS(ext), JAP+SUB] [2015 г., приключения, BDRip] [1080p] Galfimbul 1663265865115.49 GB 0 0 1446787518

08:25

6-Ноя-15

Аниме | HD Rips ·· Безграничный фафнир / Juuou Mujin no Fafnir / Unlimited Fafnir (Кусакава Кэйдзё) [TV] [12 из 12] [без хардсаба] [RUS(ext), JAP+SUB] [2015 г., приключения, BDRip] [720p] Galfimbul 78833513077.34 GB 0 0 1442046165

11:22

12-Сен-15

Аниме | HD Rips ·· Безграничный фафнир / Juuou Mujin no Fafnir / Unlimited Fafnir [TV] [4 из 12] [Без хардсаба] [JAP, SUB] [2015 г., приключения, школа, BDRip] [1080p] Galfimbul 48654984154.53 GB 0 0 1435564670

10:57

29-Июн-15

Аниме | Rips ·· Безграничный Фафнир / Juuou Mujin no Fafnir / Unlimited Fafnir (Кусакава Кэйдзё) [TV] [12 из 12] [Без хардсаба] [RUS(int), JAP+SUB] [2015 г., приключения, фэнтези, комедия, HDTVRip] [HWP] ASSMERA 35413515403.3 GB 0 0 1434365392

13:49

15-Июн-15

Аниме | Rips ·· Безграничный Фафнир / Juuou Mujin no Fafnir / Unlimited Fafnir [TV] [Без хардсаба] [01-09 из 12] [RUS(int), JAP] & [01-07 из 12] [SUB] [2015 г., приключения, фэнтези, HDTVRip] [HWP] Galfimbul 28400040122.64 GB 0 0 1428079692

19:48

3-Апр-15

Аниме | Rips ·· Безграничный Фафнир / Juuou Mujin no Fafnir / Unlimited Fafnir [TV] [01-03 из >12] [Без хардсаба] [RUS(int), JAP+SUB] [2015 г., приключения, фэнтези, HDTVRip] [HWP] Galfimbul 1013266120966 MB 0 0 1422742697

01:18

1-Фев-15

Еще никто не оставлял запись к записи скачать торрент Безграничный фафнир Juuou Mujin no Fafnir . Будь первым!

!Обратная связь