Скачать через торрент музыку Ларс и настоящая девушка Lars and The Real Girl бесплатно без регистрации torrent

Если у вас наблюдаются проблемы со скриншотами, переходом по ссылками, скачиванием торрентов - проблемы в блокировщике рекламы AdBlock. #хорошегоДня!


Статистика раздачи
Размер:  205 MB   |    Зарегистрирован:  1 год 11 месяцев   |    .torrent скачан:  28 раз   |   
Раздают:  1  
   
Загрузка...
 
Автор Сообщение

Galfimbul

avatar Galfimbul


Ларс и настоящая девушка / Lars and The Real Girl
Жанр: Score
Композитор: David Torn
Год выпуска диска: 2007
Страна-производитель диска: France
Издатель (лейбл): Milan Records
Номер по каталогу: 399 184-2
Аудио кодек: FLAC (*.flac)
Тип рипа: tracks+.cue
Битрейт аудио: lossless
Продолжительность: 00:40:36
Источник: собственный рип
Наличие сканов в содержимом раздачи: да, 600dpi
Ссылки: Кинопоиск | IMDB | Wikipedia | SoundtrackCollector
MP3: [url=...3194095](Score) Ларс и настоящая девушка / Lars and The Real Girl (by David Torn) - 2007, MP3 (tracks), 320 kbps[/url]
01. At The Mall [0:02:22.03]
02. In The Forest [0:01:16.65]
03. I. Lars Is Angry (With Bianca) / II. The Box Arrives [0:03:34.18]
04. Mrs. Gruener Accepts Him [0:01:25.40]
05. I. Opening / II. Still Opening [0:02:59.52]
06. Bowling With Margo [0:02:17.25]
07. I. Karin & The Skirt / II. His Parent's Graves / III. Snack Break / IV. Lars [0:03:53.59]
08. Karin Accepts Him [0:01:37.27]
09. I. Lars, Changing... / II. They Actually Touch [0:03:10.48]
10. Bianca Is Dying [0:02:02.13]
11. I. The Flowers / Goodbye Kiss [0:02:57.26]
12. Her Funeral... [0:01:56.35]
13. Lars & Margo [0:02:05.04]
14. Where We Started [0:02:13.59]
15. End-Credit Suite [0:04:11.05]
16. L-O-V-E (by Nat King Cole) [0:02:33.13]
Exact Audio Copy V0.99 prebeta 5 from 4. May 2009

EAC extraction logfile from 5. December 2010, 13:41

David Torn / Score - Lars and the Real Girl

Used drive : HL-DT-STDVDRAM_GSA-T20N Adapter: 0 ID: 0

Read mode : SecureUtilize accurate stream : YesDefeat audio cache : YesMake use of C2 pointers : No

Read offset correction : 667Overread into Lead-In and Lead-Out : NoFill up missing offset samples with silence : YesDelete leading and trailing silent blocks : NoNull samples used in CRC calculations : YesUsed interface : Native Win32 interface for Win NT & 2000Gap handling : Appended to previous track

Used output format : User Defined EncoderSelected bitrate : 1024 kBit/sQuality : HighAdd ID3 tag : NoCommand line compressor : C:\Program Files\Exact Audio Copy\Flac\flac.exeAdditional command line options : -V -8 -T "artist=%a" -T "title=%t" -T "album=%g" -T "date=%y" -T "tracknumber=%n" -T "genre=%m" %s

TOC of the extracted CD

Track | Start | Length | Start sector | End sector --------------------------------------------------------- 1 | 0:00.00 | 2:22.03 | 0 | 10652 2 | 2:22.03 | 1:16.65 | 10653 | 16417 3 | 3:38.68 | 3:34.18 | 16418 | 32485 4 | 7:13.11 | 1:25.40 | 32486 | 38900 5 | 8:38.51 | 2:59.52 | 38901 | 52377 6 | 11:38.28 | 2:17.25 | 52378 | 62677 7 | 13:55.53 | 3:53.59 | 62678 | 80211 8 | 17:49.37 | 1:37.27 | 80212 | 87513 9 | 19:26.64 | 3:10.48 | 87514 | 101811 10 | 22:37.37 | 2:02.13 | 101812 | 110974 11 | 24:39.50 | 2:57.26 | 110975 | 124275 12 | 27:37.01 | 1:56.35 | 124276 | 133010 13 | 29:33.36 | 2:05.04 | 133011 | 142389 14 | 31:38.40 | 2:13.59 | 142390 | 152423 15 | 33:52.24 | 4:11.05 | 152424 | 171253 16 | 38:03.29 | 2:33.13 | 171254 | 182741

Track 1

Filename C:\Music\01 - At The Mall.wav

Pre-gap length 0:00:02.00

Peak level 89.1 % Track quality 100.0 % Test CRC 32094E10 Copy CRC 32094E10 Cannot be verified as accurate (confidence 1) [9FAB37F8], AccurateRip returned [96AE182C] Copy OK

Track 2

Filename C:\Music\02 - In The Forest.wav

Pre-gap length 0:00:00.32

Peak level 89.1 % Track quality 100.0 % Test CRC 320DE9ED Copy CRC 320DE9ED Cannot be verified as accurate (confidence 1) [F64751A4], AccurateRip returned [DCA59C52] Copy OK

Track 3

Filename C:\Music\03 - I. Lars Is Angry (With Bianca) , II. The Box Arrives.wav

Pre-gap length 0:00:00.44

Peak level 89.1 % Track quality 100.0 % Test CRC C294A5A9 Copy CRC C294A5A9 Cannot be verified as accurate (confidence 1) [6FF27B0D], AccurateRip returned [14712E15] Copy OK

Track 4

Filename C:\Music\04 - Mrs. Gruener Accepts Him.wav

Pre-gap length 0:00:01.41

Peak level 89.1 % Track quality 100.0 % Test CRC EB2CE99B Copy CRC EB2CE99B Cannot be verified as accurate (confidence 1) [690C7ED5], AccurateRip returned [3C28F473] Copy OK

Track 5

Filename C:\Music\05 - I. Opening , II. Still Opening.wav

Pre-gap length 0:00:01.53

Peak level 89.1 % Track quality 100.0 % Test CRC 2488A765 Copy CRC 2488A765 Cannot be verified as accurate (confidence 1) [5F5437E8], AccurateRip returned [D022AA60] Copy OK

Track 6

Filename C:\Music\06 - Bowling With Margo.wav

Pre-gap length 0:00:01.33

Peak level 89.1 % Track quality 100.0 % Test CRC 8B87062E Copy CRC 8B87062E Cannot be verified as accurate (confidence 1) [F5084077], AccurateRip returned [5E7F4B79] Copy OK

Track 7

Filename C:\Music\07 - I. Karin & The Skirt , II. His Parent's Graves , III. Snack Break , IV. Lars.wav

Pre-gap length 0:00:00.38

Peak level 89.1 % Track quality 99.9 % Test CRC A6E09FE4 Copy CRC A6E09FE4 Cannot be verified as accurate (confidence 1) [C294BF9F], AccurateRip returned [11B13E0B] Copy OK

Track 8

Filename C:\Music\08 - Karin Accepts Him.wav

Pre-gap length 0:00:02.00

Peak level 89.1 % Track quality 100.0 % Test CRC EF3EF97A Copy CRC EF3EF97A Cannot be verified as accurate (confidence 1) [87A90662], AccurateRip returned [A15E8CEC] Copy OK

Track 9

Filename C:\Music\09 - I. Lars, Changing... , II. They Actually Touch.wav

Pre-gap length 0:00:00.70

Peak level 89.1 % Track quality 100.0 % Test CRC DC139982 Copy CRC DC139982 Cannot be verified as accurate (confidence 1) [0CF660D4], AccurateRip returned [72C07A52] Copy OK

Track 10

Filename C:\Music\10 - Bianca Is Dying.wav

Pre-gap length 0:00:00.66

Peak level 89.1 % Track quality 99.9 % Test CRC 108E01B0 Copy CRC 108E01B0 Cannot be verified as accurate (confidence 1) [F2D63CD8], AccurateRip returned [C15A98EA] Copy OK

Track 11

Filename C:\Music\11 - I. The Flowers , Goodbye Kiss.wav

Pre-gap length 0:00:01.07

Peak level 89.1 % Track quality 100.0 % Test CRC 1F3BEE84 Copy CRC 1F3BEE84 Cannot be verified as accurate (confidence 1) [3C151058], AccurateRip returned [32C7AA0E] Copy OK

Track 12

Filename C:\Music\12 - Her Funeral....wav

Pre-gap length 0:00:00.32

Peak level 84.1 % Track quality 100.0 % Test CRC BD0DCC21 Copy CRC BD0DCC21 Cannot be verified as accurate (confidence 1) [EF774474], AccurateRip returned [8155A3F0] Copy OK

Track 13

Filename C:\Music\13 - Lars & Margo.wav

Pre-gap length 0:00:01.09

Peak level 89.1 % Track quality 100.0 % Test CRC 6C89F71C Copy CRC 6C89F71C Cannot be verified as accurate (confidence 1) [A7AC34D5], AccurateRip returned [605D05AB] Copy OK

Track 14

Filename C:\Music\14 - Where We Started.wav

Pre-gap length 0:00:01.69

Peak level 89.1 % Track quality 99.9 % Test CRC 3FC7988C Copy CRC 3FC7988C Cannot be verified as accurate (confidence 1) [47FD2676], AccurateRip returned [B1C690C6] Copy OK

Track 15

Filename C:\Music\15 - End-Credit Suite.wav

Pre-gap length 0:00:02.20

Peak level 89.1 % Track quality 100.0 % Test CRC B5925CCD Copy CRC B5925CCD Cannot be verified as accurate (confidence 1) [4AD885A7], AccurateRip returned [4F651D5F] Copy OK

Track 16

Filename C:\Music\16 - L-O-V-E (by Nat King Cole).wav

Pre-gap length 0:00:02.32

Peak level 87.4 % Track quality 100.0 % Test CRC 5472B5CC Copy CRC 5472B5CC Cannot be verified as accurate (confidence 1) [D419310E], AccurateRip returned [2A77976C] Copy OK

No tracks could be verified as accurateYou may have a different pressing from the one(s) in the database

No errors occurred

End of status report
REM GENRE ScoreREM DATE 2007REM DISCID C1098410REM COMMENT "ExactAudioCopy v0.99pb5"PERFORMER "David Torn"TITLE "Score - Lars and the Real Girl"FILE "01 - At The Mall.wav" WAVE TRACK 01 AUDIO TITLE "At The Mall" PERFORMER "David Torn" INDEX 01 00:00:00 TRACK 02 AUDIO TITLE "In The Forest" PERFORMER "David Torn" INDEX 00 02:21:46FILE "02 - In The Forest.wav" WAVE INDEX 01 00:00:00 TRACK 03 AUDIO TITLE "I. Lars Is Angry (With Bianca) / II. The Box Arrives" PERFORMER "David Torn" INDEX 00 01:16:21FILE "03 - I. Lars Is Angry (With Bianca) , II. The Box Arrives.wav" WAVE INDEX 01 00:00:00 INDEX 02 01:12:35 TRACK 04 AUDIO TITLE "Mrs. Gruener Accepts Him" PERFORMER "David Torn" INDEX 00 03:32:52FILE "04 - Mrs. Gruener Accepts Him.wav" WAVE INDEX 01 00:00:00 TRACK 05 AUDIO TITLE "I. Opening / II. Still Opening" PERFORMER "David Torn" INDEX 00 01:23:62FILE "05 - I. Opening , II. Still Opening.wav" WAVE INDEX 01 00:00:00 INDEX 02 01:52:26 TRACK 06 AUDIO TITLE "Bowling With Margo" PERFORMER "David Torn" INDEX 00 02:58:19FILE "06 - Bowling With Margo.wav" WAVE INDEX 01 00:00:00 TRACK 07 AUDIO TITLE "I. Karin & The Skirt / II. His Parent's Graves / III. Snack Break / IV. Lars" PERFORMER "David Torn" INDEX 00 02:16:62FILE "07 - I. Karin & The Skirt , II. His Parent's Graves , III. Snack Break , IV. Lars.wav" WAVE INDEX 01 00:00:00 INDEX 02 01:02:33 INDEX 03 01:52:25 INDEX 04 02:57:26 TRACK 08 AUDIO TITLE "Karin Accepts Him" PERFORMER "David Torn" INDEX 00 03:51:59FILE "08 - Karin Accepts Him.wav" WAVE INDEX 01 00:00:00 TRACK 09 AUDIO TITLE "I. Lars, Changing... / II. They Actually Touch" PERFORMER "David Torn" INDEX 00 01:36:32FILE "09 - I. Lars, Changing... , II. They Actually Touch.wav" WAVE INDEX 01 00:00:00 INDEX 02 01:11:03 TRACK 10 AUDIO TITLE "Bianca Is Dying" PERFORMER "David Torn" INDEX 00 03:09:57FILE "10 - Bianca Is Dying.wav" WAVE INDEX 01 00:00:00 TRACK 11 AUDIO TITLE "I. The Flowers / Goodbye Kiss" PERFORMER "David Torn" INDEX 00 02:01:06FILE "11 - I. The Flowers , Goodbye Kiss.wav" WAVE INDEX 01 00:00:00 INDEX 02 01:12:53 TRACK 12 AUDIO TITLE "Her Funeral..." PERFORMER "David Torn" INDEX 00 02:56:69FILE "12 - Her Funeral....wav" WAVE INDEX 01 00:00:00 TRACK 13 AUDIO TITLE "Lars & Margo" PERFORMER "David Torn" INDEX 00 01:55:26FILE "13 - Lars & Margo.wav" WAVE INDEX 01 00:00:00 TRACK 14 AUDIO TITLE "Where We Started" PERFORMER "David Torn" INDEX 00 02:03:10FILE "14 - Where We Started.wav" WAVE INDEX 01 00:00:00 TRACK 15 AUDIO TITLE "End-Credit Suite" PERFORMER "David Torn" INDEX 00 02:11:39FILE "15 - End-Credit Suite.wav" WAVE INDEX 01 00:00:00 TRACK 16 AUDIO TITLE "L-O-V-E (by Nat King Cole)" PERFORMER "David Torn" INDEX 00 04:08:48FILE "16 - L-O-V-E (by Nat King Cole).wav" WAVE INDEX 01 00:00:00
[CUETools log; Date: 16.12.2015 22:15:33; Version: 2.1.5][CTDB TOCID: xEc0XQnwrFKLjWykk9GuJPHjoC0-] found.Track | CTDB Status 1 | (1/1) Accurately ripped 2 | (1/1) Accurately ripped 3 | (1/1) Accurately ripped 4 | (1/1) Accurately ripped 5 | (1/1) Accurately ripped 6 | (1/1) Accurately ripped 7 | (1/1) Accurately ripped 8 | (1/1) Accurately ripped 9 | (1/1) Accurately ripped 10 | (1/1) Accurately ripped 11 | (1/1) Accurately ripped 12 | (1/1) Accurately ripped 13 | (1/1) Accurately ripped 14 | (1/1) Accurately ripped 15 | (1/1) Accurately ripped 16 | (1/1) Accurately ripped[AccurateRip ID: 0016e3dc-011525c8-c1098410] found.Track [ CRC | V2 ] Status 01 [9fab37f8|0e71a436] (0+0/2) No match 02 [f64751a4|d7d32621] (0+0/2) No match 03 [6ff27b0d|22255bd6] (0+0/2) No match 04 [690c7ed5|d2ce47b9] (0+0/2) No match 05 [5f5437e8|772585a7] (0+0/2) No match 06 [f5084077|153f51bd] (0+0/2) No match 07 [c294bf9f|f5dec702] (0+0/2) No match 08 [87a90662|8750919d] (0+0/2) No match 09 [0cf660d4|d7339a8f] (0+0/2) No match 10 [f2d63cd8|f243010a] (0+0/2) No match 11 [3c151058|6a8ff55f] (0+0/2) No match 12 [ef774474|b4c96888] (0+0/2) No match 13 [a7ac34d5|b66a2c4f] (0+0/2) No match 14 [47fd2676|22024adb] (0+0/2) No match 15 [4ad885a7|c6b6a499] (0+0/2) No match 16 [d419310e|a1e5cf0d] (0+0/2) No matchOffsetted by -6: 01 [96ae182c] (0/2) No match (V2 was not tested) 02 [dca59c52] (0/2) No match (V2 was not tested) 03 [14712e15] (0/2) No match (V2 was not tested) 04 [3c28f473] (0/2) No match (V2 was not tested) 05 [d022aa60] (0/2) No match (V2 was not tested) 06 [5e7f4b79] (0/2) No match (V2 was not tested) 07 [11b13e0b] (0/2) No match (V2 was not tested) 08 [a15e8cec] (0/2) No match (V2 was not tested) 09 [72c07a52] (0/2) No match (V2 was not tested) 10 [c15a98ea] (0/2) No match (V2 was not tested) 11 [32c7aa0e] (0/2) No match (V2 was not tested) 12 [8155a3f0] (0/2) No match (V2 was not tested) 13 [605d05ab] (0/2) No match (V2 was not tested) 14 [b1c690c6] (0/2) No match (V2 was not tested) 15 [4f651d5f] (0/2) No match (V2 was not tested) 16 [2a77976c] (0/2) No match (V2 was not tested)

Track Peak [ CRC32 ] [W/O NULL] [ LOG ] -- 89,1 [81C202F9] [958D8E0E] 01 89,1 [32094E10] [9277FC65] CRC32 02 89,1 [320DE9ED] [28323D1C] CRC32 03 89,1 [C294A5A9] [6D8E7C5F] CRC32 04 89,1 [EB2CE99B] [8D8000C4] CRC32 05 89,1 [2488A765] [370E17D0] CRC32 06 89,1 [8B87062E] [28C91D0E] CRC32 07 89,1 [A6E09FE4] [1CF086B1] CRC32 08 89,1 [EF3EF97A] [3AB3ADF4] CRC32 09 89,1 [DC139982] [0DE43CEE] CRC32 10 89,1 [108E01B0] [14DD4411] CRC32 11 89,1 [1F3BEE84] [108BCAD7] CRC32 12 84,1 [BD0DCC21] [F42E2C0D] CRC32 13 89,1 [6C89F71C] [3CD1E0CA] CRC32 14 89,1 [3FC7988C] [298DD055] CRC32 15 89,1 [B5925CCD] [1E6DED14] CRC32 16 87,4 [5472B5CC] [6826999D] CRC32


Трекер:  [ 16-Дек-2015 22:30 ]

  

Скачать .torrent

Размер .torrent файла 18 KB


Размер: 205 MB
Хэш (hash) релиза: 23c02f03e7462e9cfa171727414680a8e78fbe12

Еще никто не оставлял запись к записи скачать торрент Ларс и настоящая девушка Lars and The Real Girl . Будь первым!

!Обратная связь