Скачать через торрент Доблесть рыцаря-неудачника Rakudai Kishi no Cavalry бесплатно Аниме Все серии на русском torrent

Если у вас наблюдаются проблемы со скриншотами, переходом по ссылками, скачиванием торрентов - проблемы в блокировщике рекламы AdBlock. #хорошегоДня!


Статистика раздачи
Размер:  1020 MB   |    Зарегистрирован:  1 год 11 месяцев   |    .torrent скачан:  40 раз   |   
Раздают:  1  
   
Загрузка...
 
Автор Сообщение

Galfimbul

avatar Galfimbul



Доблесть рыцаря-неудачника / Rakudai Kishi no Cavalry / Chivalry of a Failed Knight / 落第騎士の英雄譚[キャバルリィ]
Год выпуска: 2015 г.
Страна: Япония
Жанр: Экшен, Этти, Фентези, Романтика
Тип: TV
Продолжительность: 12 эп. по 00:23:42
Режиссер: Онума Син
Студия: Silver Link, Nexus
Перевод:
<ol class="post-ul">
Русские субтитры от Матадор & Buka63 & Nachtwandler
</ol>
<ol class="post-ul">
Русские субтитры от Adyson & Esito & Rinon Ninqueon
</ol>
Озвучка:
<ol class="post-ul">
Двухголосая от (муж/жен) Inspector_Gadjet & Nika Lenina (AniDub)
</ol>
<ol class="post-ul">
Двухголосая от (муж/жен) DemonOFmooN & Акварелька (AniFilm)
</ol>
Описание:
Мощь страны определяется числом и силой рыцарей-магов, и тут Япония, как и положено, впереди планеты всей. Именно поэтому в рыцарскую школу Хагун приезжает учиться Стелла Вермиллион по прозвищу Алая Принцесса – дома талантливая девушка достигла потолка, а в стране Ямато сильных соперников хоть отбавляй, есть куда расти. Каково же было удивление 15-летней наследницы трона и надежды всей Европы, когда ее поселили в одной комнате с неким Икки Куроганэ, второгодником и вдобавок худшим учеником академии!

Бурное и эмоциональное объяснение закончилось поединком, и тут выяснилось, что сосед Стелле попался непростой – мизерный резерв маны он компенсирует самоотдачей и фехтовальным мастерством, ведь в реальном бою не надо бить по площадям, хватит и одного точного удара. Да и роду-племени парень оказался знатного – формально Икки покинул клан, но младшая сестра Сидзуку его, к примеру, обожает… даже слишком. В общем, принцесса правильно поняла, что у такого напарника есть чему поучиться перед всеяпонским турниром – лишь бы чертовки-соперницы не увели!
Информационные ссылки: World Art || AniDB || MAL
Качество: BDRip | Рип: [Ohys-Raws]
Тип релиза: Без хардсаба
Формат видео: MP4
Наличие линковки: Нет
Видео: AVC, 1280x720, ~2369 kbps, 23.976 fps [8 bit]
Аудио:
1. Russian AC3, 48.0 KHz, 192 kbps, 2 ch (внешние) - [AniDub];
2. Russian AC3, 48.0 KHz, 192 kbps, 2 ch (внешние) - [AniFilm];
3. Japanese AAC, 48.0 KHz, ~203 kbps, 2 ch;
Субтитры:
<ol class="post-ul">
Russian: ASS, внешние;
</ol>
General Format : MPEG-4 Format profile : Base Media Codec ID : isom File size : 422 MiB Duration : 23mn 41s Overall bit rate mode : Variable Overall bit rate : 2 491 Kbps Encoded date : UTC 2015-12-29 16:27:38 Tagged date : UTC 2015-12-29 16:27:38 Video #1 ID : 1 Format : AVC Format/Info : Advanced Video Codec Format profile : Main@L4.1 Format settings, CABAC : Yes Format settings, ReFrames : 4 frames Codec ID : avc1 Codec ID/Info : Advanced Video Coding Duration : 23mn 41s Bit rate : 2 285 Kbps Maximum bit rate : 14.5 Mbps Width : 1 280 pixels Height : 720 pixels Display aspect ratio : 16:9 Frame rate mode : Constant Frame rate : 23.976 fps Color space : YUV Chroma subsampling : 4:2:0 Bit depth : 8 bits Scan type : Progressive Bits/(Pixel*Frame) : 0.103 Stream size : 387 MiB (92%) Writing library : x264 core 148 r2638 7599210 Encoding settings : cabac=1 / ref=3 / deblock=1:0:0 / analyse=0x1:0x131 / me=umh / subme=9 / psy=1 / psy_rd=1.00:0.00 / mixed_ref=1 / me_range=32 / chroma_me=1 / trellis=1 / 8x8dct=0 / cqm=0 / deadzone=21,11 / fast_pskip=1 / chroma_qp_offset=-2 / threads=12 / lookahead_threads=1 / sliced_threads=0 / nr=0 / decimate=1 / interlaced=0 / bluray_compat=0 / constrained_intra=0 / bframes=3 / b_pyramid=2 / b_adapt=1 / b_bias=0 / direct=1 / weightb=1 / open_gop=0 / weightp=2 / keyint=240 / keyint_min=1 / scenecut=40 / intra_refresh=0 / rc_lookahead=40 / rc=crf / mbtree=1 / crf=17.0 / qcomp=0.60 / qpmin=0 / qpmax=69 / qpstep=4 / ip_ratio=1.40 / aq=1:1.00 Encoded date : UTC 2015-12-29 16:27:38 Tagged date : UTC 2015-12-29 16:28:02 Audio #2 ID : 2 Format : AAC Format/Info : Advanced Audio Codec Format profile : LC Codec ID : 40 Duration : 23mn 41s Bit rate mode : Variable Bit rate : 203 Kbps Maximum bit rate : 258 Kbps Channel(s) : 2 channels Channel positions : Front: L R Sampling rate : 48.0 KHz Compression mode : Lossy Stream size : 34.4 MiB (8%) Language : Japanese Encoded date : UTC 2015-12-29 15:58:43 Tagged date : UTC 2015-12-29 16:28:02

01. Куда-уж-хуже / The Worst One I
02. Куда-уж-хуже, часть вторая / The Worst One II
[url]...5093531[/url]
[url]...5091829[/url]
- BDRip


Трекер:  [ 04-Янв-2016 20:30 ]

  

Скачать .torrent

Размер .torrent файла 21 KB


Размер: 1020 MB
Хэш (hash) релиза: 170928fc0b506222ecd702ca4bf5339b77c7ba8f
Подписка на обновления:

Торренты, похожие на Доблесть рыцаря-неудачника Rakudai Kishi no Cavalry скачать торрент

Форум Название Автор Размер S L Добавлен
Аниме | HD Rips ·· Доблесть рыцаря-неудачника / Rakudai Kishi no Cavalry / Chivalry of a Failed Knight (Онума Син) [TV] [12 из 12] [без хардсаба] [RUS(ext), JAP+SUB] [2015 г., приключения, фэнтези, этти, BDRemux] [1080p] Galfimbul 5830321645854.3 GB 0 0 1471176332

15:05

14-Авг-16

Аниме | HD Rips ·· Доблесть рыцаря-неудачника / Rakudai Kishi no Cavalry / Chivalry of a Failed Knight (Онума Син) [TV] [12 из 12] [без хардсаба] [RUS(ext),JAP+SUB] [2015 г., приключения, фэнтези, этти, BDRip] [1080p] Galfimbul 1095054416310.2 GB 0 0 1469642594

21:03

27-Июл-16

Аниме | HD Rips ·· Доблесть рыцаря-неудачника / Rakudai Kishi no Cavalry / Chivalry of a Failed Knight [TV] [12 из 12] [Без хардсаба] [RUS(ext), JAP, SUB] [2015 г., Экшен, Фэнтези, Романтика, BDRip] [720p] Galfimbul 66604286616.2 GB 0 0 1464861514

12:58

2-Июн-16

Аниме | Rips ·· Доблесть рыцаря-неудачника / Rakudai Kishi no Cavalry / Chivalry of a Failed Knight [TV] [12 из 12] [Без хардсаба] [RUS(int), JAP+SUB] [2015 г., приключения, фэнтези, HDTVRip] [HWP] Galfimbul 35079050793.27 GB 0 0 1462129809

22:10

1-Май-16

Аниме | Rips ·· Доблесть рыцаря-неудачника / Rakudai Kishi no Cavalry / Chivalry of a Failed Knight [TV] [01-06 из 12] [Без хардсаба] [RUS(int), JAP+SUB] [2015 г., приключения, фэнтези, HDTVRip] [HWP] Galfimbul 17624129591.64 GB 0 0 1461088309

20:51

19-Апр-16

Аниме | Rips ·· Доблесть рыцаря-неудачника / Rakudai Kishi no Cavalry / Chivalry of a Failed Knight [TV] [01 из 12] [Без хардсаба] [RUS(int), JAP+SUB] [2015 г., приключения, фэнтези, HDTVRip] [HWP] Galfimbul 325871970311 MB 0 0 1455543674

16:41

15-Фев-16

Аниме | HD Rips ·· Доблесть рыцаря-неудачника / Rakudai Kishi no Cavalry / Chivalry of a Failed Knight (Онума Син) [TV] [2 из 12] [Без хардсаба] [JAP+SUB] [2015 г.,приключения, фэнтези, этти, BDRemux][1080p] Galfimbul 1074295802010.01 GB 0 0 1451705250

06:27

2-Янв-16

Аниме | Rips ·· Доблесть Рыцаря-Неудачника / Rakudai Kishi no Cavalry / Chivalry of a Failed Knight [TV] [1-3 из 12] [Без хардсаба] [RUS(int)] [2015 г., приключения, HDTVRip] [720p] Galfimbul 11999915951.12 GB 0 0 1446825598

18:59

6-Ноя-15

Аниме | Rips ·· Доблесть Рыцаря-Неудачника / Rakudai Kishi no Cavalry / Chivalry of a Failed Knight [TV] [серия 01 из 12] [Без хардсаба] [RUS(int)] [2015 г., приключения, HDTVRip] Galfimbul 415470650396 MB 0 0 1446676530

01:35

5-Ноя-15

Аниме | Rips ·· Доблесть рыцаря-неудачника / Rakudai Kishi no Cavalry / Chivalry of a Failed Knight [TV] [01 из 12] [Без хардсаба] [RUS(ext), JAP, SUB] [2015 г., Экшен, Фентези, Романтика, HDTVRip] [720p] Galfimbul 520524843496 MB 0 0 1444858671

00:37

15-Окт-15

Еще никто не оставлял запись к записи скачать торрент Доблесть рыцаря-неудачника Rakudai Kishi no Cavalry . Будь первым!

!Обратная связь