Скачать порно через торрент [MEN.COM] A Royal Fuckfest Part 2 - Paul Walker, Mike de Marko UnionPeer.org бесплатно онлайн HD качество

Скачать новое порно 2015, 2014 новинки через торрент UnionPeer.org

Порно торрент бесплатно ЮнионПир.орг

Если у вас наблюдаются проблемы со скриншотами, переходом по ссылками, скачиванием торрентов - проблемы в блокировщике рекламы AdBlock. #хорошегоДня!


Статистика раздачи
Размер:  645 MB   |    Зарегистрирован:  1 год 11 месяцев   |    .torrent скачан:  14 раз   |   
Раздают:  1  
   
Загрузка...
 
Автор Сообщение

Galfimbul

avatar Galfimbul




A Royal Fuckfest Part 2

Год производства: 2015 г.
Студия: Men.com
Жанр: oral, anal, cumshot, hunk
Продолжительность: 00:21:58

Качество видео: SiteRip
Формат видео: MP4
Видео: MPEG4 Video (H264) 1280x720 23.976fps 3801kbps [V: English [eng] (h264 high L3.1, yuv420p, 1280x720, 3801 kb/s)]
Аудио: Audio: AAC 48000Hz stereo 127kbps [A: SoundHandler [eng] (aac lc, 48000 Hz, stereo, 127 kb/s)]

Описание: Paul Walker is frustrated as his princess is neglecting him, but luckily for him, one of his royal servants knows just how to take a throbbing royal dick. When the princess shows up unexpectedly, the prince is caught with his big erect dick in his servant’s mouth. He tries desperately to keep his composure as he get sucked with his princess only steps away.
General
Complete name :[MEN] Men Of Uk - A Royal Fuckfest, Part 2 -Mike De Marko & Paul Walker (720p).mp4
Format : MPEG-4
Format profile : Base Media
Codec ID : isom
File size : 645 MiB
Duration : 21mn 57s
Overall bit rate : 4 106 Kbps
Writing application : Lavf55.3.100

Video
ID : 1
Format : AVC
Format/Info : Advanced Video Codec
Format profile : High@L3.1
Format settings, CABAC : Yes
Format settings, ReFrames : 5 frames
Codec ID : avc1
Codec ID/Info : Advanced Video Coding
Duration : 21mn 57s
Bit rate : 3 800 Kbps
Width : 1 280 pixels
Height : 720 pixels
Display aspect ratio : 16:9
Frame rate mode : Constant
Frame rate : 23.976 fps
Color space : YUV
Chroma subsampling : 4:2:0
Bit depth : 8 bits
Scan type : Progressive
Bits/(Pixel*Frame) : 0.172
Stream size : 597 MiB (93%)
Writing library : x264 core 132 r2309 3b1f1f7

Audio
ID : 2
Format : AAC
Format/Info : Advanced Audio Codec
Format profile : LC
Codec ID : 40
Duration : 21mn 57s
Duration_LastFrame : 30ms
Bit rate mode : Constant
Bit rate : 128 Kbps
Channel(s) : 2 channels
Channel positions : Front: L R
Sampling rate : 48.0 KHz
Compression mode : Lossy
Stream size : 20.1 MiB (3%)
[url=...2116905]A Royal Fuckfest Part 1[/url] | A Royal Fuckfest Part 3

Трекер:  [ 09-Янв-2016 07:30 ]

  

Скачать .torrent

Размер .torrent файла 13 KB


Размер: 645 MB
Хэш (hash) релиза: 745f22a8618fce552b6072104752b3e12d783545

Торренты, похожие на [MEN.COM] A Royal Fuckfest Part 2 - Paul Walker, Mike de Marko скачать торрент

Форум Название Автор Размер S L Добавлен
Геи ·· [MenOfUK.com / Men.com] A Royal Fuckfest Part 2 (Mike De Marko, Paul Walker) [2015 г., Muscle, Anal/Oral Sex, Big Dick, BlowJob, Hairy, Cumshots, Masturbation, 1080p] Galfimbul 17370308761.62 GB 2 0 1509603655

09:20

2-Ноя-17

Еще никто не оставлял запись к записи скачать торрент [MEN.COM] A Royal Fuckfest Part 2 - Paul Walker, Mike de Marko . Будь первым!

!Обратная связь