Скачать через торрент музыку Крик 4 Scream 4 бесплатно без регистрации torrent

Если у вас наблюдаются проблемы со скриншотами, переходом по ссылками, скачиванием торрентов - проблемы в блокировщике рекламы AdBlock. #хорошегоДня!


Статистика раздачи
Размер:  302 MB   |    Зарегистрирован:  6 лет 7 месяцев   |    .torrent скачан:  106 раз   |   
Раздают:  1  
   
Загрузка...
 
Автор Сообщение

L


Крик 4 / Scream 4

Жанр: Score
Композитор: Marco Beltrami
Год выпуска диска: 2011
Издатель (лейбл): Varese Sarabande
Номер по каталогу: VSD-7083
Аудио кодек: FLAC (*.flac)
Тип рипа: tracks+.cue
Битрейт аудио: lossless
Продолжительность: 01:01:51

Источник: LzTr (thedivine1)

Треклист:
01. You're Not Real [05:44]
02. Dewey In The Morning [00:29]
03. Cheating On My Diet / Woodsboro 2010 [02:49]
04. When You Let Someone Go [01:36]
05. It's My Rental [01:35]
06. You Were Busy [01:09]
07. Which Closet? [04:32]
08. Working Together [01:24]
09. You Are The Message [03:14]
10. Everything's Under Control [01:18]
11. I Know How You Feel [02:30]
12. Cameras Obscured [01:33]
13. Gail And Ghostface [01:05]
14. Don't Spoil It [04:27]
15. The After Party [02:47]
16. I Got It Right [03:58]
17. Your Ingenue Days Are Over [05:45]
18. The After-After Party [03:16]
19. Touch And Go [02:52]
20. Don't Spoil It, Part 2 [03:57]
21. Sid's Advice [05:41]
 
Exact Audio Copy V0.99 prebeta 5 from 4. May 2009

EAC extraction logfile from 4. May 2011, 22:48

Marco Beltrami / Scream 4

Used drive : SONY DVD RW DRU-700A Adapter: 0 ID: 1

Read mode : SecureUtilize accurate stream : YesDefeat audio cache : YesMake use of C2 pointers : No

Read offset correction : 12Overread into Lead-In and Lead-Out : NoFill up missing offset samples with silence : YesDelete leading and trailing silent blocks : NoNull samples used in CRC calculations : NoUsed interface : Native Win32 interface for Win NT & 2000Gap handling : Appended to previous track

Used output format : User Defined EncoderSelected bitrate : 320 kBit/sQuality : HighAdd ID3 tag : NoCommand line compressor : C:\Program Files (x86)\Exact Audio Copy\FLAC\FLAC.EXEAdditional command line options : -V -8 -T "artist=%a" -T "title=%t" -T "album=%g" -T "date=%y" -T "tracknumber=%n" -T "genre=%m" %s

TOC of the extracted CD

Track | Start | Length | Start sector | End sector --------------------------------------------------------- 1 | 0:00.00 | 5:44.01 | 0 | 25800 2 | 5:44.01 | 0:29.51 | 25801 | 28026 3 | 6:13.52 | 2:49.72 | 28027 | 40773 4 | 9:03.49 | 1:36.15 | 40774 | 47988 5 | 10:39.64 | 1:35.02 | 47989 | 55115 6 | 12:14.66 | 1:09.40 | 55116 | 60330 7 | 13:24.31 | 4:32.70 | 60331 | 80800 8 | 17:57.26 | 1:24.10 | 80801 | 87110 9 | 19:21.36 | 3:14.45 | 87111 | 101705 10 | 22:36.06 | 1:18.05 | 101706 | 107560 11 | 23:54.11 | 2:30.34 | 107561 | 118844 12 | 26:24.45 | 1:33.41 | 118845 | 125860 13 | 27:58.11 | 1:05.10 | 125861 | 130745 14 | 29:03.21 | 4:27.28 | 130746 | 150798 15 | 33:30.49 | 2:47.53 | 150799 | 163376 16 | 36:18.27 | 3:58.52 | 163377 | 181278 17 | 40:17.04 | 5:45.57 | 181279 | 207210 18 | 46:02.61 | 3:16.25 | 207211 | 221935 19 | 49:19.11 | 2:52.35 | 221936 | 234870 20 | 52:11.46 | 3:57.63 | 234871 | 252708 21 | 56:09.34 | 5:41.58 | 252709 | 278341

Track 1

Filename P:\Music\Scream 4\Scream 4 (2011, FLAC) - Marco Beltrami\01 - You're Not Real.wav

Pre-gap length 0:00:02.00

Peak level 98.6 % Track quality 99.9 % Test CRC A07F4D12 Copy CRC A07F4D12 Track not present in AccurateRip database Copy OK

Track 2

Filename P:\Music\Scream 4\Scream 4 (2011, FLAC) - Marco Beltrami\02 - Dewey In The Morning.wav

Pre-gap length 0:00:00.34

Peak level 80.8 % Track quality 100.0 % Test CRC FC51B290 Copy CRC FC51B290 Track not present in AccurateRip database Copy OK

Track 3

Filename P:\Music\Scream 4\Scream 4 (2011, FLAC) - Marco Beltrami\03 - Cheating On My Diet , Woodsboro 2010.wav

Peak level 97.5 % Track quality 100.0 % Test CRC C72D0916 Copy CRC C72D0916 Track not present in AccurateRip database Copy OK

Track 4

Filename P:\Music\Scream 4\Scream 4 (2011, FLAC) - Marco Beltrami\04 - When You Let Someone Go.wav

Pre-gap length 0:00:00.09

Peak level 95.5 % Track quality 100.0 % Test CRC D910029D Copy CRC D910029D Track not present in AccurateRip database Copy OK

Track 5

Filename P:\Music\Scream 4\Scream 4 (2011, FLAC) - Marco Beltrami\05 - It's My Rental.wav

Pre-gap length 0:00:00.35

Peak level 94.6 % Track quality 100.0 % Test CRC BDD1C1D6 Copy CRC BDD1C1D6 Track not present in AccurateRip database Copy OK

Track 6

Filename P:\Music\Scream 4\Scream 4 (2011, FLAC) - Marco Beltrami\06 - You Were Busy.wav

Pre-gap length 0:00:00.35

Peak level 55.7 % Track quality 100.0 % Test CRC 4E1FEBC8 Copy CRC 4E1FEBC8 Track not present in AccurateRip database Copy OK

Track 7

Filename P:\Music\Scream 4\Scream 4 (2011, FLAC) - Marco Beltrami\07 - Which Closet .wav

Pre-gap length 0:00:00.73

Peak level 96.8 % Track quality 99.9 % Test CRC E5BCC16D Copy CRC E5BCC16D Track not present in AccurateRip database Copy OK

Track 8

Filename P:\Music\Scream 4\Scream 4 (2011, FLAC) - Marco Beltrami\08 - Working Together.wav

Pre-gap length 0:00:00.72

Peak level 95.8 % Track quality 100.0 % Test CRC 5A2AD2C0 Copy CRC 5A2AD2C0 Track not present in AccurateRip database Copy OK

Track 9

Filename P:\Music\Scream 4\Scream 4 (2011, FLAC) - Marco Beltrami\09 - You Are The Message.wav

Pre-gap length 0:00:01.72

Peak level 96.6 % Track quality 99.9 % Test CRC 10F5FB82 Copy CRC 10F5FB82 Track not present in AccurateRip database Copy OK

Track 10

Filename P:\Music\Scream 4\Scream 4 (2011, FLAC) - Marco Beltrami\10 - Everything's Under Control.wav

Pre-gap length 0:00:00.72

Peak level 97.7 % Track quality 100.0 % Test CRC 4916BA1B Copy CRC 4916BA1B Track not present in AccurateRip database Copy OK

Track 11

Filename P:\Music\Scream 4\Scream 4 (2011, FLAC) - Marco Beltrami\11 - I Know How You Feel.wav

Pre-gap length 0:00:00.34

Peak level 96.4 % Track quality 100.0 % Test CRC D9F8F14D Copy CRC D9F8F14D Track not present in AccurateRip database Copy OK

Track 12

Filename P:\Music\Scream 4\Scream 4 (2011, FLAC) - Marco Beltrami\12 - Cameras Obscured.wav

Pre-gap length 0:00:00.72

Peak level 97.6 % Track quality 100.0 % Test CRC 62F02F96 Copy CRC 62F02F96 Track not present in AccurateRip database Copy OK

Track 13

Filename P:\Music\Scream 4\Scream 4 (2011, FLAC) - Marco Beltrami\13 - Gail And Ghostface.wav

Pre-gap length 0:00:00.72

Peak level 97.6 % Track quality 100.0 % Test CRC F72DE073 Copy CRC F72DE073 Track not present in AccurateRip database Copy OK

Track 14

Filename P:\Music\Scream 4\Scream 4 (2011, FLAC) - Marco Beltrami\14 - Don't Spoil It.wav

Pre-gap length 0:00:00.46

Peak level 97.7 % Track quality 100.0 % Test CRC 5EA5583F Copy CRC 5EA5583F Track not present in AccurateRip database Copy OK

Track 15

Filename P:\Music\Scream 4\Scream 4 (2011, FLAC) - Marco Beltrami\15 - The After Party.wav

Pre-gap length 0:00:00.73

Peak level 98.0 % Track quality 99.9 % Test CRC 83F5A9EC Copy CRC 83F5A9EC Track not present in AccurateRip database Copy OK

Track 16

Filename P:\Music\Scream 4\Scream 4 (2011, FLAC) - Marco Beltrami\16 - I Got It Right.wav

Pre-gap length 0:00:01.11

Peak level 97.7 % Track quality 100.0 % Test CRC B130F1F7 Copy CRC B130F1F7 Track not present in AccurateRip database Copy OK

Track 17

Filename P:\Music\Scream 4\Scream 4 (2011, FLAC) - Marco Beltrami\17 - Your Ingenue Days Are Over.wav

Pre-gap length 0:00:01.74

Peak level 98.1 % Track quality 100.0 % Test CRC E23B0EF5 Copy CRC E23B0EF5 Track not present in AccurateRip database Copy OK

Track 18

Filename P:\Music\Scream 4\Scream 4 (2011, FLAC) - Marco Beltrami\18 - The After-After Party.wav

Pre-gap length 0:00:00.73

Peak level 97.9 % Track quality 100.0 % Test CRC 1BFEEE24 Copy CRC 1BFEEE24 Track not present in AccurateRip database Copy OK

Track 19

Filename P:\Music\Scream 4\Scream 4 (2011, FLAC) - Marco Beltrami\19 - Touch And Go.wav

Pre-gap length 0:00:00.73

Peak level 95.5 % Track quality 100.0 % Test CRC 43A8D953 Copy CRC 43A8D953 Track not present in AccurateRip database Copy OK

Track 20

Filename P:\Music\Scream 4\Scream 4 (2011, FLAC) - Marco Beltrami\20 - Don't Spoil It, Part 2.wav

Pre-gap length 0:00:01.72

Peak level 97.9 % Track quality 100.0 % Test CRC 025CEA7F Copy CRC 025CEA7F Track not present in AccurateRip database Copy OK

Track 21

Filename P:\Music\Scream 4\Scream 4 (2011, FLAC) - Marco Beltrami\21 - Sid's Advice.wav

Pre-gap length 0:00:00.36

Peak level 97.6 % Track quality 100.0 % Test CRC AFF78365 Copy CRC AFF78365 Track not present in AccurateRip database Copy OK

None of the tracks are present in the AccurateRip database

No errors occurred

End of status report
 
REM GENRE SoundtrackREM DATE 2011REM DISCID 220E7F15REM COMMENT "ExactAudioCopy v0.99pb5"CATALOG 2101052929206FILE "01 - You're Not Real.wav" WAVE TRACK 01 AUDIO ISRC 8@45:2908614 INDEX 01 00:00:00 TRACK 02 AUDIO ISRC 8@45:2908614 INDEX 00 05:43:42FILE "02 - Dewey In The Morning.wav" WAVE INDEX 01 00:00:00FILE "03 - Cheating On My Diet , Woodsboro 2010.wav" WAVE TRACK 03 AUDIO ISRC 8@45:2908614 INDEX 01 00:00:00 TRACK 04 AUDIO ISRC 8@45:2908614 INDEX 00 02:49:63FILE "04 - When You Let Someone Go.wav" WAVE INDEX 01 00:00:00 TRACK 05 AUDIO ISRC 8@45:2908614 INDEX 00 01:35:55FILE "05 - It's My Rental.wav" WAVE INDEX 01 00:00:00 TRACK 06 AUDIO ISRC 8@45:2908614 INDEX 00 01:34:42FILE "06 - You Were Busy.wav" WAVE INDEX 01 00:00:00 TRACK 07 AUDIO ISRC 8@45:2908614 INDEX 00 01:08:42FILE "07 - Which Closet .wav" WAVE INDEX 01 00:00:00 TRACK 08 AUDIO ISRC 8@45:2908614 INDEX 00 04:31:73FILE "08 - Working Together.wav" WAVE INDEX 01 00:00:00 TRACK 09 AUDIO ISRC 8@45:2908614 INDEX 00 01:22:13FILE "09 - You Are The Message.wav" WAVE INDEX 01 00:00:00 TRACK 10 AUDIO ISRC 8@45:2908614 INDEX 00 03:13:48FILE "10 - Everything's Under Control.wav" WAVE INDEX 01 00:00:00 TRACK 11 AUDIO ISRC 8@45:2908614 INDEX 00 01:17:46FILE "11 - I Know How You Feel.wav" WAVE INDEX 01 00:00:00 TRACK 12 AUDIO ISRC 8@45:2908614 INDEX 00 02:29:37FILE "12 - Cameras Obscured.wav" WAVE INDEX 01 00:00:00 TRACK 13 AUDIO ISRC 8@45:2908614 INDEX 00 01:32:44FILE "13 - Gail And Ghostface.wav" WAVE INDEX 01 00:00:00 TRACK 14 AUDIO ISRC 8@45:2908614 INDEX 00 01:04:39FILE "14 - Don't Spoil It.wav" WAVE INDEX 01 00:00:00 TRACK 15 AUDIO ISRC 8@45:2908614 INDEX 00 04:26:30FILE "15 - The After Party.wav" WAVE INDEX 01 00:00:00 TRACK 16 AUDIO ISRC 8@45:2908614 INDEX 00 02:46:42FILE "16 - I Got It Right.wav" WAVE INDEX 01 00:00:00 TRACK 17 AUDIO ISRC 8@45:2908614 INDEX 00 03:56:53FILE "17 - Your Ingenue Days Are Over.wav" WAVE INDEX 01 00:00:00 TRACK 18 AUDIO ISRC 8@45:2908614 INDEX 00 05:44:59FILE "18 - The After-After Party.wav" WAVE INDEX 01 00:00:00 TRACK 19 AUDIO ISRC 8@45:2908614 INDEX 00 03:15:27FILE "19 - Touch And Go.wav" WAVE INDEX 01 00:00:00 TRACK 20 AUDIO ISRC 8@45:2908614 INDEX 00 02:50:38FILE "20 - Don't Spoil It, Part 2.wav" WAVE INDEX 01 00:00:00 TRACK 21 AUDIO ISRC 8@45:2908614 INDEX 00 03:57:27FILE "21 - Sid's Advice.wav" WAVE INDEX 01 00:00:00
 
REM GENRE SoundtrackREM DATE 2011REM DISCID 220E7F15REM COMMENT "ExactAudioCopy v0.99pb5"CATALOG 2101052929206PERFORMER "Marco Beltrami"TITLE "Scream 4"FILE "01 - You're Not Real.wav" WAVE TRACK 01 AUDIO TITLE "You're Not Real" PERFORMER "Marco Beltrami" ISRC 8@45:2908614 INDEX 01 00:00:00 TRACK 02 AUDIO TITLE "Dewey In The Morning" PERFORMER "Marco Beltrami" ISRC 8@45:2908614 INDEX 00 05:43:42FILE "02 - Dewey In The Morning.wav" WAVE INDEX 01 00:00:00FILE "03 - Cheating On My Diet , Woodsboro 2010.wav" WAVE TRACK 03 AUDIO TITLE "Cheating On My Diet / Woodsboro 2010" PERFORMER "Marco Beltrami" ISRC 8@45:2908614 INDEX 01 00:00:00 TRACK 04 AUDIO TITLE "When You Let Someone Go" PERFORMER "Marco Beltrami" ISRC 8@45:2908614 INDEX 00 02:49:63FILE "04 - When You Let Someone Go.wav" WAVE INDEX 01 00:00:00 TRACK 05 AUDIO TITLE "It's My Rental" PERFORMER "Marco Beltrami" ISRC 8@45:2908614 INDEX 00 01:35:55FILE "05 - It's My Rental.wav" WAVE INDEX 01 00:00:00 TRACK 06 AUDIO TITLE You Were Busy"" PERFORMER "Marco Beltrami" ISRC 8@45:2908614 INDEX 00 01:34:42FILE "06 - You Were Busy.wav" WAVE INDEX 01 00:00:00 TRACK 07 AUDIO TITLE "Which Closet" PERFORMER "Marco Beltrami" ISRC 8@45:2908614 INDEX 00 01:08:42FILE "07 - Which Closet .wav" WAVE INDEX 01 00:00:00 TRACK 08 AUDIO TITLE "Working Together" PERFORMER "Marco Beltrami" ISRC 8@45:2908614 INDEX 00 04:31:73FILE "08 - Working Together.wav" WAVE INDEX 01 00:00:00 TRACK 09 AUDIO TITLE "You Are The Message" PERFORMER "Marco Beltrami" ISRC 8@45:2908614 INDEX 00 01:22:13FILE "09 - You Are The Message.wav" WAVE INDEX 01 00:00:00 TRACK 10 AUDIO TITLE "Everything's Under Control" PERFORMER "Marco Beltrami" ISRC 8@45:2908614 INDEX 00 03:13:48FILE "10 - Everything's Under Control.wav" WAVE INDEX 01 00:00:00 TRACK 11 AUDIO TITLE "I Know How You Feel" PERFORMER "Marco Beltrami" ISRC 8@45:2908614 INDEX 00 01:17:46FILE "11 - I Know How You Feel.wav" WAVE INDEX 01 00:00:00 TRACK 12 AUDIO TITLE "Cameras Obscured" PERFORMER "Marco Beltrami" ISRC 8@45:2908614 INDEX 00 02:29:37FILE "12 - Cameras Obscured.wav" WAVE INDEX 01 00:00:00 TRACK 13 AUDIO TITLE "Gail And Ghostface" PERFORMER "Marco Beltrami" ISRC 8@45:2908614 INDEX 00 01:32:44FILE "13 - Gail And Ghostface.wav" WAVE INDEX 01 00:00:00 TRACK 14 AUDIO TITLE "Don't Spoil It" PERFORMER "Marco Beltrami" ISRC 8@45:2908614 INDEX 00 01:04:39FILE "14 - Don't Spoil It.wav" WAVE INDEX 01 00:00:00 TRACK 15 AUDIO TITLE "The After Party" PERFORMER "Marco Beltrami" ISRC 8@45:2908614 INDEX 00 04:26:30FILE "15 - The After Party.wav" WAVE INDEX 01 00:00:00 TRACK 16 AUDIO TITLE "I Got It Right" PERFORMER "Marco Beltrami" ISRC 8@45:2908614 INDEX 00 02:46:42FILE "16 - I Got It Right.wav" WAVE INDEX 01 00:00:00 TRACK 17 AUDIO TITLE "Your Ingenue Days Are Over" PERFORMER "Marco Beltrami" ISRC 8@45:2908614 INDEX 00 03:56:53FILE "17 - Your Ingenue Days Are Over.wav" WAVE INDEX 01 00:00:00 TRACK 18 AUDIO TITLE "The After-After Party" PERFORMER "Marco Beltrami" ISRC 8@45:2908614 INDEX 00 05:44:59FILE "18 - The After-After Party.wav" WAVE INDEX 01 00:00:00 TRACK 19 AUDIO TITLE "Touch And Go" PERFORMER "Marco Beltrami" ISRC 8@45:2908614 INDEX 00 03:15:27FILE "19 - Touch And Go.wav" WAVE INDEX 01 00:00:00 TRACK 20 AUDIO TITLE "Don't Spoil It, Part 2" PERFORMER "Marco Beltrami" ISRC 8@45:2908614 INDEX 00 02:50:38FILE "20 - Don't Spoil It, Part 2.wav" WAVE INDEX 01 00:00:00 TRACK 21 AUDIO TITLE "Sid's Advice" PERFORMER "Marco Beltrami" ISRC 8@45:2908614 INDEX 00 03:57:27FILE "21 - Sid's Advice.wav" WAVE INDEX 01 00:00:00


Трекер:  [ 05-Май-2011 12:54 ]

  

Скачать .torrent

Размер .torrent файла 13 KB


Размер: 302 MB
Хэш (hash) релиза: f802e55966b3554be26948de9e7859953fd4168d

Еще никто не оставлял запись к записи скачать торрент Крик 4 Scream 4 . Будь первым!

!Обратная связь