Скачать через торрент Хроники непобежденного Бахамута Undefeated Bahamut Chronicle бесплатно Аниме Все серии на русском torrent

Если у вас наблюдаются проблемы со скриншотами, переходом по ссылками, скачиванием торрентов - проблемы в блокировщике рекламы AdBlock. #хорошегоДня!


Статистика раздачи
Размер:  385 MB   |    Зарегистрирован:  1 год 11 месяцев   |    .torrent скачан:  21 раз   |   
Раздают:  1  
   
Загрузка...
 
Автор Сообщение

Galfimbul

avatar Galfimbul


Хроники непобежденного Бахамута / Undefeated Bahamut Chronicle / Saijaku Muhai no Bahamut

Страна: Япония
Год выпуска: 2016 г.
Жанр: романтика, фэнтези, школа, этти
Тип: TV
Продолжительность: 12 эп. по 24 мин.
Режиссер: Андо Масаоми
Студия: Lerche

Описание: Аниме "Хроники непобежденного Бахамута" покажут нам судьбу непростого юноши по имени Люкс. Во-первых, он принц. Точнее, бывший принц: так уж вышло, что отец Люкса стоял во главе империи Аркадия, пока пять лет назад его не свергли в результате масштабного восстания. Во-вторых, Люкс обладает совершенно уникальными навыками боя: он способен пилотировать боевые машины, используемые в Аркадии и по всему миру для ведения войн. Правда, навыки свои бывший принц использует весьма оригинально: он более чем способен постоять за себя, но никогда сам не атакует, в результате чего и заслужил прозвище «непобежденный слабак».

В-третьих... в-третьих, у Люкса уникальная способность влипать в нелепые ситуации с неожиданными результатами. Судите сами: он умудрился случайно угодить в общежитскую баню академии для девочек, наткнуться там на обнаженную принцессу, вызвать ее гнев своим «недостойным поведением» и принять от нее вызов на дуэль. И что в итоге? В итоге Люкс оказывается в числе учащихся академии и единственным мужчиной в этом цветнике. Теперь его боевым навыкам найдется достойное применение, а принцессе выпадет уникальный шанс поучится у бывшего принца смирять свой вспыльчивый нрав.

Качество: HDTVRip
Тип релиза: Без хардсаба
Формат видео: MP4
Наличие линковки: Нет
Релиз/Автор рипа: Leopard-Raws
Видео: x264 (8 bit), 1280x720, ~2100 Kbps, 23.976 fps
Аудио JAP: AAC, 48000 Hz, ~192 Kbps, 2 ch
Субтитры RUS: ASS, внешние; Перевод: Jin, NewMeta; Редактура: NewMeta (AniPlay)
GeneralComplete name : C:\Documents and Settings\Администратор\Мои документы\Downloads\Saijaku Muhai no Bahamut\[Leopard-Raws] Saijaku Muhai no Bahamut - 01 RAW (ATX 1280x720 x264 AAC).mp4Format : MPEG-4Format profile : Base MediaCodec ID : isomFile size : 385 MiBDuration : 24mn 0sOverall bit rate mode : VariableOverall bit rate : 2 242 KbpsEncoded date : UTC 2016-01-11 15:46:47Tagged date : UTC 2016-01-11 15:46:47

VideoID : 1Format : AVCFormat/Info : Advanced Video CodecFormat profile : High@L4.1Format settings, CABAC : YesFormat settings, ReFrames : 4 framesCodec ID : avc1Codec ID/Info : Advanced Video CodingDuration : 24mn 0sBit rate : 2 047 KbpsMaximum bit rate : 9 562 KbpsWidth : 1 280 pixelsHeight : 720 pixelsDisplay aspect ratio : 16:9Frame rate mode : ConstantFrame rate : 23.976 fpsColor space : YUVChroma subsampling : 4:2:0Bit depth : 8 bitsScan type : ProgressiveBits/(Pixel*Frame) : 0.093Stream size : 351 MiB (91%)Title : 264:fps=23.976@GPAC0.5.1-DEV-rev4929Writing library : x264 core 129 r2245+729M 1a52e03Encoding settings : cabac=1 / ref=4 / deblock=1:1:-1 / analyse=0x3:0x113 / me=umh / subme=9 / psy=1 / fade_compensate=0.00 / psy_rd=1.00:0.00 / mixed_ref=1 / me_range=24 / chroma_me=1 / trellis=2 / 8x8dct=1 / cqm=0 / deadzone=21,11 / fast_pskip=1 / chroma_qp_offset=-2 / threads=8 / lookahead_threads=1 / sliced_threads=0 / nr=0 / decimate=1 / interlaced=0 / bluray_compat=0 / constrained_intra=0 / fgo=0 / bframes=9 / b_pyramid=2 / b_adapt=2 / b_bias=0 / direct=1 / weightb=1 / open_gop=0 / weightp=2 / keyint=240 / keyint_min=24 / scenecut=40 / intra_refresh=0 / rc=crf / mbtree=0 / crf=18.5 / qcomp=0.72 / qpmin=0 / qpmax=69 / qpstep=4 / ip_ratio=1.40 / pb_ratio=1.30 / aq=1:0.85Encoded date : UTC 2016-01-11 15:46:47Tagged date : UTC 2016-01-11 15:46:51Color primaries : BT.709Transfer characteristics : BT.709Matrix coefficients : BT.709

AudioID : 2Format : AACFormat/Info : Advanced Audio CodecFormat profile : LCCodec ID : 40Duration : 24mn 0sBit rate mode : VariableBit rate : 192 KbpsMaximum bit rate : 231 KbpsChannel count : 2 channelsChannel positions : Front: L RSampling rate : 48.0 KHzCompression mode : LossyStream size : 32.8 MiB (9%)Language : JapaneseEncoded date : UTC 2016-01-11 14:54:57Tagged date : UTC 2016-01-11 15:46:51
01.


Трекер:  [ 12-Янв-2016 10:00 ]

  

Скачать .torrent

Размер .torrent файла 15 KB


Размер: 385 MB
Хэш (hash) релиза: 6ae5546a273750a2a9856f4efd54e41e8a2eb4b4
Подписка на обновления:

Торренты, похожие на Хроники непобежденного Бахамута Undefeated Bahamut Chronicle скачать торрент

Форум Название Автор Размер S L Добавлен
Аниме | HD Rips ·· Хроники непобежденного Бахамута / Undefeated Bahamut Chronicle / Saijaku Muhai no Bahamut (Андо Масаоми) [TV] [01 из 12] [Без хардсаба] [RUS(ext), JAP+SUB] [2016 г., фэнтези, романтика, школа, этти, HDTVRip] [720p] Galfimbul 438427914418 MB 0 0 1452985271

02:01

17-Янв-16

Аниме | HD Rips ·· Хроники непобежденного Бахамута / Saijaku Muhai no Bahamut / Undefeated Bahamut Chronicle [TV] [12 из 12] [без хардсаба] [RUS(ext), JAP+SUB] [2016, приключения, фэнтези, этти, BDRemux] [1080p] Galfimbul 6123992531457.03 GB 0 0 1479654573

18:09

20-Ноя-16

Аниме | HD Rips ·· Хроники непобежденного Бахамута / Saijaku Muhai no Bahamut / Undefeated Bahamut Chronicle [TV] [08 из 12] [Без хардсаба] [RUS(ext), JAP, SUB] [2016, Экшен, Этти, Фэнтези, Романтика, Школа, Гарем, Сверхъестественное, BDRip] [1080p] Galfimbul 1464173943313.64 GB 0 0 1478434273

15:11

6-Ноя-16

Аниме | HD Rips ·· Хроники непобежденного Бахамута / Saijaku Muhai no Bahamut / Undefeated Bahamut Chronicle [TV] [12 из 12] [Без хардсаба] [RUS(ext), JAP, SUB] [2016, Экшен, Этти, Фэнтези, Романтика, Школа, Гарем, Сверхъестественное, BDRip] [720p] Galfimbul 65498410556.1 GB 0 0 1478287839

22:30

4-Ноя-16

Аниме | HD Rips ·· Хроники непобежденного Бахамута / Saijaku Muhai no Bahamut / Undefeated Bahamut Chronicle [TV] [01-06 из 12] [без хардсаба] [RUS(ext), JAP+SUB] [2016 г., Экшен, Этти, Фэнтези, Романтика, Школа, Гарем, Сверхъестественное, BDRemux] [1080p] Galfimbul 2964137814627.61 GB 0 0 1474919082

22:44

26-Сен-16

Аниме | HD Rips ·· Хроники непобежденного Бахамута / Saijaku Muhai no Bahamut / Undefeated Bahamut Chronicle [TV] [01-04 из 12] [без хардсаба] [RUS(ext), JAP+SUB] [2016 г., Экшен, Этти, Фэнтези, Романтика, Школа, Гарем, Сверхъестественное, BDRemux] [1080p] Galfimbul 1991139531618.54 GB 0 0 1467319555

23:45

30-Июн-16

Аниме | HD Rips ·· Хроники непобежденного Бахамута / Saijaku Muhai no Bahamut / Undefeated Bahamut Chronicle [TV] [01-02 из 12] [Без хардсаба] [RUS(ext), JAP, SUB] [2016 г., Экшен, Этти, Фэнтези, Романтика, Школа, Гарем, Сверхъестественное, BDRip] [720p] Galfimbul 851625088812 MB 0 0 1459629228

23:33

2-Апр-16

Аниме | HD Rips ·· Хроники непобежденного Бахамута / Saijaku Muhai no Bahamut / Undefeated Bahamut Chronicle (Андо Масаоми) [TV] [Без хардсаба] [01-04 из 12] [JAP+SUB] & [01-03 из 12] [RUS(ext)] [2016 г., фэнтези, романтика, школа, этти, HDTVRip] [720p] Galfimbul 18076753981.68 GB 0 0 1454936309

15:58

8-Фев-16

Аниме | Rips ·· Хроники непобежденного Бахамута / Saijaku Muhai no Bahamut / Undefeated Bahamut Chronicle [TV] [01-02 из 12] [Без хардсаба] [RUS(ext), JAP, SUB] [2016 г., Экшен, Этти, Фэнтези, Романтика, Школа, Гарем, Сверхъестественное, HDTVRip] [720p] Galfimbul 980813922935 MB 0 0 1453362205

10:43

21-Янв-16

Еще никто не оставлял запись к записи скачать торрент Хроники непобежденного Бахамута Undefeated Bahamut Chronicle . Будь первым!

!Обратная связь