Скачать через торрент Магазинчик сладостей Дешёвые Сладости-Радости бесплатно Аниме Все серии на русском torrent

Если у вас наблюдаются проблемы со скриншотами, переходом по ссылками, скачиванием торрентов - проблемы в блокировщике рекламы AdBlock. #хорошегоДня!


Статистика раздачи
Размер:  837 MB   |    Зарегистрирован:  1 год 10 месяцев   |    .torrent скачан:  23 раза   |   
Раздают:  1  
   
Загрузка...
 
Автор Сообщение

Galfimbul

avatar Galfimbul


Магазинчик сладостей / Дешёвые Сладости-Радости / Dagashi Kashi

Страна: Япония
Год выпуска: 2016 г.
Жанр: комедия, повседневность, романтика, школа
Тип: TV
Продолжительность: 12 эп. по ~25 мин.
Режиссер: Такаянаги Сигэхито
Студия: Feel

Перевод:
русские субтитры от Zero

русские субтитры от Shirome
(Переводчик/Редактор: Adyson, dimon43; Переводчик/Перевод песен/Оформление: Rinon Ninqueon)

Описание: В жизни у каждого человека есть место для мечты. А если тебе 15 лет и ты еще не знаешь, кем тебе хочется стать в жизни, то и вовсе голова идет кругом от профессии актера, модели или художника. Наш герой — Коконоицу Шикада, избрал путь мангаки. Он каждую ночь рисует и совершенствует свои навыки, но он даже не подозревает, что родители уже давно подготовили ему другую краьеру. У отца Коконоицу есть маленький кондитерский магазин, известный как самый дешевый магазинчик сладостейй. И он хочет, чтобы сын также проникся его бизнесом, поэтому вскоре этот бизнес будет принадлежать Коконоицу.

Парень в шоке от такого предложения, ведь, если он забросит рисование, в пользу работе, его мечта никогда не сбудется. А уж тем более, скучное и размеренное управление магазином — это явно не его конек. Но отец у парня тоже не лыком шит, он просит помочь ему с кондитерской, за одну услугу - материально помочь в его стремлении стать мангакой. Невольно, Коконоицу соглашается, позже он встречает действительно удивительную девушку, которая вдохновила его на эксперименты в работе, но это уже совсем другая история.

Качество: HDTVRip
Тип релиза: Без хардсаба
Формат видео: MP4
Наличие линковки: Нет
Релиз/Автор рипа: Leopard-Raws
Видео: x264 (8 bit), 1280x720, ~1700 Kbps, 23.976 fps
Аудио JAP: AAC, 48000 Hz, ~192 Kbps, 2 ch
Аудио RUS 1: AAC, 48000 Hz, ~192 Kbps, 2 ch; (внешними файлами); Озвучка: двухголосая (муж./жен.) от Zendos & Ruri (Onibaku Group)
Аудио RUS 2: AAC, 48000 Hz, ~192 Kbps, 2 ch; (внешними файлами); Озвучка: трёхголосая от Snowly & NesTea & Viki (SHIZA Project)
Субтитры RUS 1-2: ASS, внешние
GeneralComplete name : C:\Documents and Settings\Администратор\Мои документы\Downloads\Dagashi Kashi\[Leopard-Raws] Dagashi Kashi - 01 RAW (TBS 1280x720 x264 AAC).mp4Format : MPEG-4Format profile : Base MediaCodec ID : isomFile size : 332 MiBDuration : 24mn 29sOverall bit rate mode : VariableOverall bit rate : 1 892 KbpsEncoded date : UTC 2016-01-08 09:14:01Tagged date : UTC 2016-01-08 09:14:01

VideoID : 1Format : AVCFormat/Info : Advanced Video CodecFormat profile : High@L4.1Format settings, CABAC : YesFormat settings, ReFrames : 4 framesCodec ID : avc1Codec ID/Info : Advanced Video CodingDuration : 24mn 29sBit rate : 1 696 KbpsMaximum bit rate : 13.8 MbpsWidth : 1 280 pixelsHeight : 720 pixelsDisplay aspect ratio : 16:9Frame rate mode : ConstantFrame rate : 23.976 fpsColor space : YUVChroma subsampling : 4:2:0Bit depth : 8 bitsScan type : ProgressiveBits/(Pixel*Frame) : 0.077Stream size : 297 MiB (90%)Title : 264:fps=23.976@GPAC0.5.1-DEV-rev4929Writing library : x264 core 129 r2245+729M 1a52e03Encoding settings : cabac=1 / ref=4 / deblock=1:1:-1 / analyse=0x3:0x113 / me=umh / subme=9 / psy=1 / fade_compensate=0.00 / psy_rd=1.00:0.00 / mixed_ref=1 / me_range=24 / chroma_me=1 / trellis=2 / 8x8dct=1 / cqm=0 / deadzone=21,11 / fast_pskip=1 / chroma_qp_offset=-2 / threads=8 / lookahead_threads=1 / sliced_threads=0 / nr=0 / decimate=1 / interlaced=0 / bluray_compat=0 / constrained_intra=0 / fgo=0 / bframes=9 / b_pyramid=2 / b_adapt=2 / b_bias=0 / direct=1 / weightb=1 / open_gop=0 / weightp=2 / keyint=240 / keyint_min=24 / scenecut=40 / intra_refresh=0 / rc=crf / mbtree=0 / crf=18.5 / qcomp=0.72 / qpmin=0 / qpmax=69 / qpstep=4 / ip_ratio=1.40 / pb_ratio=1.30 / aq=1:0.85Encoded date : UTC 2016-01-08 09:14:01Tagged date : UTC 2016-01-08 09:14:03Color primaries : BT.709Transfer characteristics : BT.709Matrix coefficients : BT.709

AudioID : 2Format : AACFormat/Info : Advanced Audio CodecFormat profile : LCCodec ID : 40Duration : 24mn 29sBit rate mode : VariableBit rate : 192 KbpsMaximum bit rate : 224 KbpsChannel count : 2 channelsChannel positions : Front: L RSampling rate : 48.0 KHzCompression mode : LossyStream size : 33.6 MiB (10%)Language : JapaneseEncoded date : UTC 2016-01-07 18:45:55Tagged date : UTC 2016-01-08 09:14:03
Сладость первая: Вкусный батончик, картошка фри, и...
Сладость вторая: Сахарная патока, поддельное пиво и...
[url]...5147506[/url] - наличие озвучки


Трекер:  [ 17-Янв-2016 20:30 ]

  

Скачать .torrent

Размер .torrent файла 17 KB


Размер: 837 MB
Хэш (hash) релиза: 37d94d1e8924e38ed775e986943774b1552c9877
Подписка на обновления:

Торренты, похожие на Магазинчик сладостей Дешёвые Сладости-Радости скачать торрент

Форум Название Автор Размер S L Добавлен
Аниме | HD Rips ·· Магазинчик сладостей / Дешёвые Сладости-Радости / Dagashi Kashi (Такаянаги Сигэхито) [TV] [01 из 12] [Без хардсаба] [RUS(ext), JAP+SUB] [2016 г., комедия, школа, повседневность, романтика, HDTVRip] [720p] Galfimbul 383246769365 MB 0 0 1452380644

02:04

10-Янв-16

Еще никто не оставлял запись к записи скачать торрент Магазинчик сладостей Дешёвые Сладости-Радости . Будь первым!

!Обратная связь