Скачать через торрент Город, в котором меня нет Город, в котором нет лишь меня бесплатно Аниме Все серии на русском torrent

Если у вас наблюдаются проблемы со скриншотами, переходом по ссылками, скачиванием торрентов - проблемы в блокировщике рекламы AdBlock. #хорошегоДня!


Статистика раздачи
Размер:  1.03 GB   |    Зарегистрирован:  1 год 10 месяцев   |    .torrent скачан:  14 раз   |   
Раздают:  1  
   
Загрузка...
 
Автор Сообщение

Galfimbul

avatar Galfimbul


Город, в котором меня нет / Город, в котором нет лишь меня / Boku dake ga Inai Machi
Страна: Япония
Жанр: cейнен, cверхъестественное, детектив
Год выпуска: 2016
Продолжительность:12 серий по 25 минут

Режиссёр: Ито Томохико (Itou Tomohiko)
Режиссёр: A-1 Pictures Inc.

Перевод: двухголосый закадровый (студия STEPonee)


Роли озвучивали:
<ol class="post-ul">
Илья Хайко
Натиа Макаридзе
</ol>
Перевод на русский язык: ФСГ LeDi-MaHo Team

Описание
Жизнь мангаки нелегка. Тяжелый и кропотливый труд по достоинству вознаграждается в редких случаях. Авторские работы, в которые были вложены душа и нравоучительный посыл, не всегда достигают сердец читателей. Однажды понять, что ты пустой и скучный человек, не способный на большее — самый большой страх в жизни мангаки.
Сатору Фуджинума тоже автор. В свои двадцать восемь лет он трудится не покладая рук и стремится к намеченной цели. Однако не все авторы гении, и далеко не у каждого получается выразить себя в своих работах. «Каким должен быть главный герой?», «Должен ли он быть достаточно похож на меня?», «Чего ему не хватает?», «Чего не хватает мне?» Такими вопросами ежедневно задается Сатору, и, как многие, боится однажды увидеть себя пустым и скучным.
Но разве пустые и скучные люди могут так же ловко подмечать в своем окружении разные мелочи? Могут ли они, воспользовавшись этим, с безграничной самоотдачей помогать людям? Сатору может. Но признавать это в себе, то, что делает его далеко не посредственным, он не хочет. Впрочем, как и называть свой дар сверхъестественным. Ведь в сущности этот хмурый мангака имеет возможность не просто подмечать мелочи. Он может, хоть и непроизвольно, «откатывать» время назад, что уж точно нельзя назвать обычным.
Сэмпл
Подготовка релиза:
<ol class="post-ul">
Натиа Макаридзе - работа со звуком
Илья Хайко - монтаж
Екатерина Проц - постер
</ol>
Качество: HDTVRip
Тип релиза: Без хардсаба
Формат видео: MP4
Наличие линковки: Нет
Релиз/Автор рипа: [HorribleSubs]
Видео: x264, 1280x720 (16:9), 23,976 к/с, 1776 кбит/с
Аудио: AC3 2.0, 48 кГц, 384 кбит/с Язык Русский (в составе контейнера)
GeneralComplete name : D:\SYSTEM FOLDERS\Рабочий стол\Voice\STEPonee\ANIME\Boku Dake ga Inai Machi\01\01\[STEPonee] Boku Dake ga Inai Machi - 01.mp4Format : MPEG-4Format profile : Base MediaCodec ID : isomFile size : 351 MiBDuration : 22mn 50sOverall bit rate : 2 151 KbpsEncoded date : UTC 2016-01-08 18:26:40Tagged date : UTC 2016-01-08 18:26:40Writing application : My MP4Box GUI 0.6.0.6 <http://my-mp4box-gui.zymichost.com>;

VideoID : 1Format : AVCFormat/Info : Advanced Video CodecFormat profile : High@L4.0Format settings, CABAC : YesFormat settings, ReFrames : 6 framesCodec ID : avc1Codec ID/Info : Advanced Video CodingDuration : 22mn 49sBit rate : 1 776 KbpsMaximum bit rate : 8 555 KbpsWidth : 1 280 pixelsHeight : 720 pixelsDisplay aspect ratio : 16:9Frame rate mode : ConstantFrame rate : 23.976 fpsColor space : YUVChroma subsampling : 4:2:0Bit depth : 8 bitsScan type : ProgressiveBits/(Pixel*Frame) : 0.080Stream size : 288 MiB (82%)Title : [HorribleSubs] Boku Dake ga Inai Machi - 01 [720p]_track1.h264Writing library : x264 core 120 r2120 0c7dab9Encoding settings : cabac=1 / ref=6 / deblock=1:1:1 / analyse=0x3:0x113 / me=umh / subme=8 / psy=1 / psy_rd=0.40:0.00 / mixed_ref=1 / me_range=16 / chroma_me=1 / trellis=1 / 8x8dct=1 / cqm=0 / deadzone=21,11 / fast_pskip=1 / chroma_qp_offset=-2 / threads=4 / sliced_threads=0 / nr=0 / decimate=1 / interlaced=0 / bluray_compat=0 / constrained_intra=0 / bframes=3 / b_pyramid=2 / b_adapt=2 / b_bias=0 / direct=3 / weightb=1 / open_gop=0 / weightp=2 / keyint=250 / keyint_min=23 / scenecut=40 / intra_refresh=0 / rc_lookahead=50 / rc=2pass / mbtree=1 / bitrate=1776 / ratetol=1.0 / qcomp=0.60 / qpmin=0 / qpmax=69 / qpstep=4 / cplxblur=20.0 / qblur=0.5 / vbv_maxrate=3552 / vbv_bufsize=8880 / nal_hrd=none / ip_ratio=1.40 / aq=1:0.60Encoded date : UTC 2016-01-08 18:26:40Tagged date : UTC 2016-01-08 18:26:54

AudioID : 2Format : AC-3Format/Info : Audio Coding 3Mode extension : CM (complete main)Format settings, Endianness : BigCodec ID : ac-3Duration : 22mn 50sBit rate mode : ConstantBit rate : 384 KbpsChannel count : 2 channelsChannel positions : Front: L RSampling rate : 48.0 KHzBit depth : 16 bitsCompression mode : LossyStream size : 62.7 MiB (18%)Title : b.ac3Encoded date : UTC 2016-01-08 18:26:46Tagged date : UTC 2016-01-08 18:26:54
1. Пролетая перед глазами
2. Ладонь
3. Синяк
[url]...Boku%20dake%20ga%20Inai%20Machi[/url] - альтернативная озвучка
[url=...steponee]Все разделы[/url]
[url=...915&nm=steponee]Корейские сериалы[/url]
[url=...1939&nm=steponee]Японские сериалы[/url]
[url=...2412&nm=steponee]Прочие азиатские сериалы[/url]
[url=...934&nm=steponee]Азиатские фильмы[/url]
Добавлена 3-я серия

Трекер:  [ 23-Янв-2016 18:00 ]

  

Скачать .torrent

Размер .torrent файла 11 KB


Размер: 1.03 GB
Хэш (hash) релиза: b9ac95ba3b243fcf64c363786d78c62bf391d158
Подписка на обновления:

Торренты, похожие на Город, в котором меня нет Город, в котором нет лишь меня скачать торрент

Форум Название Автор Размер S L Добавлен
Аниме | Rips ·· Город, в котором меня нет / Город, в котором нет лишь меня / Boku dake ga Inai Machi [TV] [01-12 из 12] [Без хардсаба] [RUS(int)] [2016 г., cейнен, cверхъестественное, детектив, WEBRip] [720p] Galfimbul 39102939613.64 GB 0 0 1458998934

16:28

26-Мар-16

Аниме | Rips ·· Город, в котором меня нет / Город, в котором нет лишь меня / Boku dake ga Inai Machi [TV] [01-11 из 12] [Без хардсаба] [RUS(int)] [2016 г., cейнен, cверхъестественное, детектив, WEBRip] [720p] Galfimbul 35840690623.34 GB 0 0 1458331906

23:11

18-Мар-16

Аниме | Rips ·· Город, в котором меня нет / Город, в котором нет лишь меня / Boku dake ga Inai Machi [TV] [01-10 из 12] [Без хардсаба] [RUS(int)] [2016 г., cейнен, cверхъестественное, детектив, WEBRip] [720p] Galfimbul 32586181903.03 GB 0 0 1457787807

16:03

12-Мар-16

Аниме | Rips ·· Город, в котором меня нет / Город, в котором нет лишь меня / Boku dake ga Inai Machi [TV] [01-09 из 11] [Без хардсаба] [RUS(int)] [2016 г., cейнен, cверхъестественное, детектив, WEBRip] [720p] Galfimbul 29321813802.73 GB 0 0 1457208353

23:05

5-Мар-16

Аниме | Rips ·· Город, в котором меня нет / Город, в котором нет лишь меня / Boku dake ga Inai Machi [TV] [01-08 из 11] [Без хардсаба] [RUS(int)] [2016 г., cейнен, cверхъестественное, детектив, WEBRip] [720p] Galfimbul 26065017242.43 GB 0 0 1456575735

15:22

27-Фев-16

Аниме | Rips ·· Город, в котором меня нет / Город, в котором нет лишь меня / Boku dake ga Inai Machi [TV] [01-07 из 11] [Без хардсаба] [RUS(int)] [2016 г., cейнен, cверхъестественное, детектив, WEBRip] [720p] Galfimbul 22802978482.12 GB 0 0 1455967734

14:28

20-Фев-16

Аниме | Rips ·· Город, в котором меня нет / Город, в котором нет лишь меня / Boku dake ga Inai Machi [TV] [01-06 из 11] [Без хардсаба] [RUS(int)] [2016 г., cейнен, cверхъестественное, детектив, WEBRip] [720p] Galfimbul 19540480911.82 GB 0 0 1455449572

14:32

14-Фев-16

Аниме | Rips ·· Город, в котором меня нет / Город, в котором нет лишь меня / Boku dake ga Inai Machi [TV] [01-05 из 11] [Без хардсаба] [RUS(int)] [2016 г., cейнен, cверхъестественное, детектив, WEBRip] [720p] Galfimbul 16286836401.52 GB 0 0 1454760836

15:13

6-Фев-16

Аниме | Rips ·· Город, в котором меня нет / Город, в котором нет лишь меня / Boku dake ga Inai Machi [TV] [01-04 из 11] [Без хардсаба] [RUS(int)] [2016 г., cейнен, cверхъестественное, детектив, WEBRip] [720p] Galfimbul 13031468701.21 GB 0 0 1454166070

18:01

30-Янв-16

Еще никто не оставлял запись к записи скачать торрент Город, в котором меня нет Город, в котором нет лишь меня . Будь первым!

!Обратная связь