Скачать через торрент музыку Зеркала 2 Mirrors 2 бесплатно без регистрации torrent

Если у вас наблюдаются проблемы со скриншотами, переходом по ссылками, скачиванием торрентов - проблемы в блокировщике рекламы AdBlock. #хорошегоДня!


Статистика раздачи
Размер:  328 MB   |    Зарегистрирован:  1 год 10 месяцев   |    .torrent скачан:  16 раз   |   
Раздают:  1  
   
Загрузка...
 
Автор Сообщение

Galfimbul

avatar Galfimbul


Зеркала 2 / Mirrors 2
Жанр: Score
Композитор: Frederik Wiedmann
Год выпуска диска: 2010
Производитель диска: Crest Digital, USA
Издатель (лейбл): La-La Land Records
Номер по каталогу: LLLCD 1151
Аудиокодек: FLAC (*.flac)
Тип рипа: tracks+.cue
Битрейт аудио: lossless
Продолжительность: 00:51:15
Источник: собственный рип
Наличие сканов в содержимом раздачи: да, 600 dpi
Ссылки: Кинопоиск | IMDB | Wikipedia | SoundtrackCollector
MP3: [url=...3200556](Score) Зеркала 2 / Mirrors 2 (by Frederik Wiedmann) - 2010, MP3 (tracks), 320 kbps[/url]
Frederik Wiedmann: [url=...786&nm=Frederik+Wiedmann]lossless[/url] | [url=...785&nm=Frederik+Wiedmann]lossy[/url]
01. Main Title [0:03:31.49]
02. Kayla [0:01:50.25]
03. Slice [0:02:31.32]
04. Alive [0:02:05.34]
05. Run! [0:02:01.11]
06. Who Is Henry Schow? [0:02:03.26]
07. Eleanor's Lament [0:03:35.09]
08. Keller Returns [0:01:29.02]
09. Suspicious [0:02:17.69]
10. Loosing Her Up [0:02:05.62]
11. The Murder [0:01:25.65]
12. Want A Slice? [0:02:38.51]
13. At Henry's House [0:01:19.63]
14. A Corpse In The Basement [0:01:09.18]
15. Car Crash [0:01:22.72]
16. Max's Theme [0:01:26.48]
17. Broken Glass For Dinner [0:01:26.14]
18. Nightmare [0:01:06.41]
19. Revenge [0:01:29.50]
20. Arriving At The Crime Scene [0:01:09.02]
21. Reflection [0:01:21.54]
22. In The Basement [0:03:03.42]
23. Mirror Syndrome [0:02:15.19]
24. Breaking Glass [0:01:02.62]
25. It's Over [0:01:20.62]
26. Mirrors II [0:04:04.12]
Exact Audio Copy V1.1 from 23. June 2015

EAC extraction logfile from 26. January 2016, 0:02

Frederik Wiedmann / Mirrors 2

Used drive : PLEXTOR CD-R PX-230A Adapter: 1 ID: 0

Read mode : SecureUtilize accurate stream : YesDefeat audio cache : YesMake use of C2 pointers : No

Read offset correction : 738Overread into Lead-In and Lead-Out : NoFill up missing offset samples with silence : YesDelete leading and trailing silent blocks : NoNull samples used in CRC calculations : YesUsed interface : Native Win32 interface for Win NT & 2000Gap handling : Appended to previous track

Used output format : User Defined EncoderSelected bitrate : 1024 kBit/sQuality : HighAdd ID3 tag : NoCommand line compressor : C:\Program Files (x86)\Exact Audio Copy\FLAC\FLAC.EXEAdditional command line options : -6 -V -T "ARTIST=%artist%" -T "TITLE=%title%" -T "ALBUM=%albumtitle%" -T "DATE=%year%"-T "TRACKNUMBER=%tracknr%" -T "GENRE=%genre%" -T "COMMENT=%comment%" -T "ALBUMARTIST=%albuminterpret%" -T "COMPOSER=%composer%"-T "DISCNUMBER=%cdnumber%" -T "TOTALDISCS=%totalcds%" -T "TOTALTRACKS=%numtracks%" %source% -o %dest%

TOC of the extracted CD

Track | Start | Length | Start sector | End sector --------------------------------------------------------- 1 | 0:00.00 | 3:31.49 | 0 | 15873 2 | 3:31.49 | 1:50.25 | 15874 | 24148 3 | 5:21.74 | 2:31.32 | 24149 | 35505 4 | 7:53.31 | 2:05.34 | 35506 | 44914 5 | 9:58.65 | 2:01.11 | 44915 | 54000 6 | 12:00.01 | 2:03.26 | 54001 | 63251 7 | 14:03.27 | 3:35.09 | 63252 | 79385 8 | 17:38.36 | 1:29.02 | 79386 | 86062 9 | 19:07.38 | 2:17.69 | 86063 | 96406 10 | 21:25.32 | 2:05.62 | 96407 | 105843 11 | 23:31.19 | 1:25.65 | 105844 | 112283 12 | 24:57.09 | 2:38.51 | 112284 | 124184 13 | 27:35.60 | 1:19.63 | 124185 | 130172 14 | 28:55.48 | 1:09.18 | 130173 | 135365 15 | 30:04.66 | 1:22.72 | 135366 | 141587 16 | 31:27.63 | 1:26.48 | 141588 | 148085 17 | 32:54.36 | 1:26.14 | 148086 | 154549 18 | 34:20.50 | 1:06.41 | 154550 | 159540 19 | 35:27.16 | 1:29.50 | 159541 | 166265 20 | 36:56.66 | 1:09.02 | 166266 | 171442 21 | 38:05.68 | 1:21.54 | 171443 | 177571 22 | 39:27.47 | 3:03.42 | 177572 | 191338 23 | 42:31.14 | 2:15.19 | 191339 | 201482 24 | 44:46.33 | 1:02.62 | 201483 | 206194 25 | 45:49.20 | 1:20.62 | 206195 | 212256 26 | 47:10.07 | 4:04.12 | 212257 | 230568

Track 1

Filename C:\Music\01 - Frederik Wiedmann - Main Title.wav

Pre-gap length 0:00:02.00

Peak level 97.8 % Extraction speed 7.0 X Track quality 100.0 % Test CRC 7ADBCB1D Copy CRC 7ADBCB1D Track not present in AccurateRip database Copy OK

Track 2

Filename C:\Music\02 - Frederik Wiedmann - Kayla.wav

Pre-gap length 0:00:02.00

Peak level 96.8 % Extraction speed 6.8 X Track quality 100.0 % Test CRC DA0F7BBD Copy CRC DA0F7BBD Track not present in AccurateRip database Copy OK

Track 3

Filename C:\Music\03 - Frederik Wiedmann - Slice.wav

Pre-gap length 0:00:02.00

Peak level 100.0 % Extraction speed 7.2 X Track quality 100.0 % Test CRC 3905DD2B Copy CRC 3905DD2B Track not present in AccurateRip database Copy OK

Track 4

Filename C:\Music\04 - Frederik Wiedmann - Alive.wav

Pre-gap length 0:00:02.00

Peak level 100.0 % Extraction speed 6.6 X Track quality 100.0 % Test CRC E9CCAE7E Copy CRC E9CCAE7E Track not present in AccurateRip database Copy OK

Track 5

Filename C:\Music\05 - Frederik Wiedmann - Run!.wav

Pre-gap length 0:00:02.00

Peak level 100.0 % Extraction speed 5.5 X Track quality 99.9 % Test CRC CB707D5E Copy CRC CB707D5E Track not present in AccurateRip database Copy OK

Track 6

Filename C:\Music\06 - Frederik Wiedmann - Who Is Henry Schow.wav

Pre-gap length 0:00:02.00

Peak level 72.3 % Extraction speed 7.2 X Track quality 100.0 % Test CRC FBDC25E4 Copy CRC FBDC25E4 Track not present in AccurateRip database Copy OK

Track 7

Filename C:\Music\07 - Frederik Wiedmann - Eleanor's Lament.wav

Pre-gap length 0:00:02.00

Peak level 100.0 % Extraction speed 7.0 X Track quality 99.9 % Test CRC F50C6DEB Copy CRC F50C6DEB Track not present in AccurateRip database Copy OK

Track 8

Filename C:\Music\08 - Frederik Wiedmann - Keller Returns.wav

Pre-gap length 0:00:02.00

Peak level 100.0 % Extraction speed 7.0 X Track quality 100.0 % Test CRC 5CB34294 Copy CRC 5CB34294 Track not present in AccurateRip database Copy OK

Track 9

Filename C:\Music\09 - Frederik Wiedmann - Suspicious.wav

Pre-gap length 0:00:02.02

Peak level 72.1 % Extraction speed 7.8 X Track quality 100.0 % Test CRC 7985676B Copy CRC 7985676B Track not present in AccurateRip database Copy OK

Track 10

Filename C:\Music\10 - Frederik Wiedmann - Loosing Her Up.wav

Pre-gap length 0:00:02.00

Peak level 100.0 % Extraction speed 6.6 X Track quality 99.9 % Test CRC 7A0F16D5 Copy CRC 7A0F16D5 Track not present in AccurateRip database Copy OK

Track 11

Filename C:\Music\11 - Frederik Wiedmann - The Murder.wav

Pre-gap length 0:00:02.00

Peak level 97.6 % Extraction speed 8.4 X Track quality 100.0 % Test CRC E69A70B7 Copy CRC E69A70B7 Track not present in AccurateRip database Copy OK

Track 12

Filename C:\Music\12 - Frederik Wiedmann - Want A Slice.wav

Pre-gap length 0:00:02.00

Peak level 100.0 % Extraction speed 7.9 X Track quality 99.9 % Test CRC 0231F75D Copy CRC 0231F75D Track not present in AccurateRip database Copy OK

Track 13

Filename C:\Music\13 - Frederik Wiedmann - At Henry's House.wav

Pre-gap length 0:00:02.00

Peak level 93.4 % Extraction speed 7.4 X Track quality 100.0 % Test CRC 56831FE3 Copy CRC 56831FE3 Track not present in AccurateRip database Copy OK

Track 14

Filename C:\Music\14 - Frederik Wiedmann - A Corpse In The Basement.wav

Pre-gap length 0:00:02.00

Peak level 100.0 % Extraction speed 7.3 X Track quality 100.0 % Test CRC D237CBF4 Copy CRC D237CBF4 Track not present in AccurateRip database Copy OK

Track 15

Filename C:\Music\15 - Frederik Wiedmann - Car Crash.wav

Pre-gap length 0:00:02.00

Peak level 85.5 % Extraction speed 5.6 X Track quality 99.8 % Test CRC 463BC49B Copy CRC 463BC49B Track not present in AccurateRip database Copy OK

Track 16

Filename C:\Music\16 - Frederik Wiedmann - Max's Theme.wav

Pre-gap length 0:00:02.00

Peak level 85.2 % Extraction speed 6.2 X Track quality 99.8 % Test CRC B9DE8395 Copy CRC B9DE8395 Track not present in AccurateRip database Copy OK

Track 17

Filename C:\Music\17 - Frederik Wiedmann - Broken Glass For Dinner.wav

Pre-gap length 0:00:02.00

Peak level 100.0 % Extraction speed 8.2 X Track quality 100.0 % Test CRC 4AA2D793 Copy CRC 4AA2D793 Track not present in AccurateRip database Copy OK

Track 18

Filename C:\Music\18 - Frederik Wiedmann - Nightmare.wav

Pre-gap length 0:00:02.00

Peak level 98.7 % Extraction speed 7.3 X Track quality 100.0 % Test CRC B17BE90D Copy CRC B17BE90D Track not present in AccurateRip database Copy OK

Track 19

Filename C:\Music\19 - Frederik Wiedmann - Revenge.wav

Pre-gap length 0:00:02.00

Peak level 100.0 % Extraction speed 7.8 X Track quality 100.0 % Test CRC 91B2DEA8 Copy CRC 91B2DEA8 Track not present in AccurateRip database Copy OK

Track 20

Filename C:\Music\20 - Frederik Wiedmann - Arriving At The Crime Scene.wav

Pre-gap length 0:00:02.00

Peak level 73.3 % Extraction speed 5.4 X Track quality 99.8 % Test CRC 286A0D12 Copy CRC 286A0D12 Track not present in AccurateRip database Copy OK

Track 21

Filename C:\Music\21 - Frederik Wiedmann - Reflection.wav

Pre-gap length 0:00:02.00

Peak level 88.3 % Extraction speed 8.0 X Track quality 100.0 % Test CRC 11DFC555 Copy CRC 11DFC555 Track not present in AccurateRip database Copy OK

Track 22

Filename C:\Music\22 - Frederik Wiedmann - In The Basement.wav

Pre-gap length 0:00:02.00

Peak level 99.9 % Extraction speed 7.9 X Track quality 99.9 % Test CRC DE898255 Copy CRC DE898255 Track not present in AccurateRip database Copy OK

Track 23

Filename C:\Music\23 - Frederik Wiedmann - Mirror Syndrome.wav

Pre-gap length 0:00:02.00

Peak level 75.7 % Extraction speed 9.1 X Track quality 100.0 % Test CRC B61C3C2A Copy CRC B61C3C2A Track not present in AccurateRip database Copy OK

Track 24

Filename C:\Music\24 - Frederik Wiedmann - Breaking Glass.wav

Pre-gap length 0:00:02.00

Peak level 100.0 % Extraction speed 7.8 X Track quality 100.0 % Test CRC 4CFEF560 Copy CRC 4CFEF560 Track not present in AccurateRip database Copy OK

Track 25

Filename C:\Music\25 - Frederik Wiedmann - It's Over.wav

Pre-gap length 0:00:02.00

Peak level 64.2 % Extraction speed 8.2 X Track quality 100.0 % Test CRC 37453FCC Copy CRC 37453FCC Track not present in AccurateRip database Copy OK

Track 26

Filename C:\Music\26 - Frederik Wiedmann - Mirrors II.wav

Pre-gap length 0:00:02.00

Peak level 100.0 % Extraction speed 10.0 X Track quality 100.0 % Test CRC CD2323B3 Copy CRC CD2323B3 Track not present in AccurateRip database Copy OK

None of the tracks are present in the AccurateRip database

No errors occurred

End of status report

---- CUETools DB Plugin V2.1.6

[CTDB TOCID: is2GKnjGItkYsUYzWU_kMm5INbk-] foundSubmit result: is2GKnjGItkYsUYzWU_kMm5INbk- has been confirmedTrack | CTDB Status 1 | (1/1) Accurately ripped 2 | (1/1) Accurately ripped 3 | (1/1) Accurately ripped 4 | (1/1) Accurately ripped 5 | (1/1) Accurately ripped 6 | (1/1) Accurately ripped 7 | (1/1) Accurately ripped 8 | (1/1) Accurately ripped 9 | (1/1) Accurately ripped 10 | (1/1) Accurately ripped 11 | (1/1) Accurately ripped 12 | (1/1) Accurately ripped 13 | (1/1) Accurately ripped 14 | (1/1) Accurately ripped 15 | (1/1) Accurately ripped 16 | (1/1) Accurately ripped 17 | (1/1) Accurately ripped 18 | (1/1) Accurately ripped 19 | (1/1) Accurately ripped 20 | (1/1) Accurately ripped 21 | (1/1) Accurately ripped 22 | (1/1) Accurately ripped 23 | (1/1) Accurately ripped 24 | (1/1) Accurately ripped 25 | (1/1) Accurately ripped 26 | (1/1) Accurately ripped

==== Log checksum 658864A7CAF8203D9180CA98220AF6EB56E452F69F3E07C9FC93D41A43B29A20 ====
REM GENRE SoundtrackREM DATE 2010REM DISCID 810C021AREM COMMENT "ExactAudioCopy v1.1"PERFORMER "Frederik Wiedmann"TITLE "Mirrors 2"FILE "01 - Main Title.wav" WAVE TRACK 01 AUDIO TITLE "Main Title" PERFORMER "Frederik Wiedmann" FLAGS DCP INDEX 01 00:00:00 TRACK 02 AUDIO TITLE "Kayla" PERFORMER "Frederik Wiedmann" FLAGS DCP INDEX 00 03:29:49FILE "02 - Kayla.wav" WAVE INDEX 01 00:00:00 TRACK 03 AUDIO TITLE "Slice" PERFORMER "Frederik Wiedmann" FLAGS DCP INDEX 00 01:48:25FILE "03 - Slice.wav" WAVE INDEX 01 00:00:00 TRACK 04 AUDIO TITLE "Alive" PERFORMER "Frederik Wiedmann" FLAGS DCP INDEX 00 02:29:32FILE "04 - Alive.wav" WAVE INDEX 01 00:00:00 TRACK 05 AUDIO TITLE "Run!" PERFORMER "Frederik Wiedmann" FLAGS DCP INDEX 00 02:03:34FILE "05 - Run!.wav" WAVE INDEX 01 00:00:00 TRACK 06 AUDIO TITLE "Who Is Henry Schow?" PERFORMER "Frederik Wiedmann" FLAGS DCP INDEX 00 01:59:11FILE "06 - Who Is Henry Schow.wav" WAVE INDEX 01 00:00:00 TRACK 07 AUDIO TITLE "Eleanor's Lament" PERFORMER "Frederik Wiedmann" FLAGS DCP INDEX 00 02:01:26FILE "07 - Eleanor's Lament.wav" WAVE INDEX 01 00:00:00 TRACK 08 AUDIO TITLE "Keller Returns" PERFORMER "Frederik Wiedmann" FLAGS DCP INDEX 00 03:33:09FILE "08 - Keller Returns.wav" WAVE INDEX 01 00:00:00 TRACK 09 AUDIO TITLE "Suspicious" PERFORMER "Frederik Wiedmann" FLAGS DCP INDEX 00 01:27:00FILE "09 - Suspicious.wav" WAVE INDEX 01 00:00:00 TRACK 10 AUDIO TITLE "Loosing Her Up" PERFORMER "Frederik Wiedmann" FLAGS DCP INDEX 00 02:15:69FILE "10 - Loosing Her Up.wav" WAVE INDEX 01 00:00:00 TRACK 11 AUDIO TITLE "The Murder" PERFORMER "Frederik Wiedmann" FLAGS DCP INDEX 00 02:03:62FILE "11 - The Murder.wav" WAVE INDEX 01 00:00:00 TRACK 12 AUDIO TITLE "Want A Slice?" PERFORMER "Frederik Wiedmann" FLAGS DCP INDEX 00 01:23:65FILE "12 - Want A Slice.wav" WAVE INDEX 01 00:00:00 TRACK 13 AUDIO TITLE "At Henry's House" PERFORMER "Frederik Wiedmann" FLAGS DCP INDEX 00 02:36:51FILE "13 - At Henry's House.wav" WAVE INDEX 01 00:00:00 TRACK 14 AUDIO TITLE "A Corpse In The Basement" PERFORMER "Frederik Wiedmann" FLAGS DCP INDEX 00 01:17:63FILE "14 - A Corpse In The Basement.wav" WAVE INDEX 01 00:00:00 TRACK 15 AUDIO TITLE "Car Crash" PERFORMER "Frederik Wiedmann" FLAGS DCP INDEX 00 01:07:18FILE "15 - Car Crash.wav" WAVE INDEX 01 00:00:00 TRACK 16 AUDIO TITLE "Max's Theme" PERFORMER "Frederik Wiedmann" FLAGS DCP INDEX 00 01:20:72FILE "16 - Max's Theme.wav" WAVE INDEX 01 00:00:00 TRACK 17 AUDIO TITLE "Broken Glass For Dinner" PERFORMER "Frederik Wiedmann" FLAGS DCP INDEX 00 01:24:48FILE "17 - Broken Glass For Dinner.wav" WAVE INDEX 01 00:00:00 TRACK 18 AUDIO TITLE "Nightmare" PERFORMER "Frederik Wiedmann" FLAGS DCP INDEX 00 01:24:14FILE "18 - Nightmare.wav" WAVE INDEX 01 00:00:00 TRACK 19 AUDIO TITLE "Revenge" PERFORMER "Frederik Wiedmann" FLAGS DCP INDEX 00 01:04:41FILE "19 - Revenge.wav" WAVE INDEX 01 00:00:00 TRACK 20 AUDIO TITLE "Arriving At The Crime Scene" PERFORMER "Frederik Wiedmann" FLAGS DCP INDEX 00 01:27:50FILE "20 - Arriving At The Crime Scene.wav" WAVE INDEX 01 00:00:00 TRACK 21 AUDIO TITLE "Reflection" PERFORMER "Frederik Wiedmann" FLAGS DCP INDEX 00 01:07:02FILE "21 - Reflection.wav" WAVE INDEX 01 00:00:00 TRACK 22 AUDIO TITLE "In The Basement" PERFORMER "Frederik Wiedmann" FLAGS DCP INDEX 00 01:19:54FILE "22 - In The Basement.wav" WAVE INDEX 01 00:00:00 TRACK 23 AUDIO TITLE "Mirror Syndrome" PERFORMER "Frederik Wiedmann" FLAGS DCP INDEX 00 03:01:42FILE "23 - Mirror Syndrome.wav" WAVE INDEX 01 00:00:00 TRACK 24 AUDIO TITLE "Breaking Glass" PERFORMER "Frederik Wiedmann" FLAGS DCP INDEX 00 02:13:19FILE "24 - Breaking Glass.wav" WAVE INDEX 01 00:00:00 TRACK 25 AUDIO TITLE "It's Over" PERFORMER "Frederik Wiedmann" FLAGS DCP INDEX 00 01:00:62FILE "25 - It's Over.wav" WAVE INDEX 01 00:00:00 TRACK 26 AUDIO TITLE "Mirrors II" PERFORMER "Frederik Wiedmann" FLAGS DCP INDEX 00 01:18:62FILE "26 - Mirrors II.wav" WAVE INDEX 01 00:00:00


Трекер:  [ 26-Янв-2016 17:00 ]

  

Скачать .torrent

Размер .torrent файла 28 KB


Размер: 328 MB
Хэш (hash) релиза: 666cc06a18f8d4025c95e9371d6ceb4e946d0e4e

Еще никто не оставлял запись к записи скачать торрент Зеркала 2 Mirrors 2 . Будь первым!

!Обратная связь