Скачать через торрент Норн9: Норн + Нонет Norn9: Norn + Nonetto бесплатно Аниме Все серии на русском torrent

Если у вас наблюдаются проблемы со скриншотами, переходом по ссылками, скачиванием торрентов - проблемы в блокировщике рекламы AdBlock. #хорошегоДня!


Статистика раздачи
Размер:  1.68 GB   |    Зарегистрирован:  1 год 10 месяцев   |    .torrent скачан:  18 раз   |   
Раздают:  1  
   
Загрузка...
 
Автор Сообщение

Galfimbul

avatar Galfimbul


Норн9: Норн + Нонет / Norn9: Norn + Nonetto
Страна: Япония
Год выпуска: 2016 г.
Тип: TV
Жанр: Романтика, гарем, фэнтези, приключения, школа, сёдзё
Продолжительность: 12 эп. по 25 мин
Русские субтитры: YakuSub Studio
Перевод песен: Nika_Elrik
Переводчик: SeshaRim
Русские субтитры:
Редактор: Kasandra
Переводчик: sys3x
Режиссер: Або Такао

Студия: &

Описание: По сюжету — молодой парнишка по имени Сората мистическим образом попадает в иную реальность. Буквально зачитавшись до потери сознания, он внезапно приходит в себя посреди странноватого серого мира, до боли напоминающего иллюстрации периода Мэйдзи прямиком из учебников. Увлекаемый приятной мелодией, герой исследует новый мир и случайно встречает странную незнакомку, которая счастлива помочь ему в этой нелегкой ситуации.. Стоит лишь отыскать парящий в небесах корабль!. Это мистическое путешествие преподносит Сорате встречу с 3 симпатичными девушками и 9 бравыми ребятами, являющими собой команду огромного небесного корабля под названием Norn. Куда они летят и что их ждет в конце пути не знает пока никто, кроме изредка кидающей сигнал SOS станции "Мир"

Качество: HDTVRip | Равка: Leopard-Raws Формат: mp4 | Тип Видео: без хардсаба
Видео: х264, 8 bits, 1280x720, 2314 kbps, 23.976 fps, (16:9)
JP - AAC, 192 kbps, 48.0 KHz, 2 ch Язык Японский
01. The Ship That Sails in the Sky
02. Ability
03. Sprouting Spring
04. Serenade of the Dawn
Общее
Полное имя : D:\[Leopard-Raws]\[Leopard-Raws] Norn9 - Norn + Nonetto\[Leopard-Raws] Norn9 - Norn + Nonetto - 01 RAW (BS11 1280x720 x264 AAC).mp4
Формат : MPEG-4
Профиль формата : Base Media
Идентификатор кодека : isom
Размер файла : 431 Мбайт
Продолжительность : 23 м.
Режим общего битрейта : Переменный
Общий поток : 2509 Кбит/сек
Дата кодирования : UTC 2016-01-07 20:07:41
Дата пометки : UTC 2016-01-07 20:07:41

Видео
Идентификатор : 1
Формат : AVC
Формат/Информация : Advanced Video Codec
Профиль формата : High@L4.1
Параметр CABAC формата : Да
Параметр ReFrames формата : 4 кадра
Идентификатор кодека : avc1
Идентификатор кодека/Информация : Advanced Video Coding
Продолжительность : 23 м.
Битрейт : 2314 Кбит/сек
Максимальный битрейт : 14,1 Мбит/сек
Ширина : 1280 пикселей
Высота : 720 пикселей
Соотношение сторон : 16:9
Режим частоты кадров : Постоянный
Частота кадров : 23,976 кадра/сек
Цветовое пространство : YUV
Субдискретизация насыщенности : 4:2:0
Битовая глубина : 8 бит
Тип развёртки : Прогрессивная
Бит/(Пиксели*Кадры) : 0.105
Размер потока : 397 Мбайт (92%)
Заголовок : 264:fps=23.976@GPAC0.5.1-DEV-rev4929
Библиотека кодирования : x264 core 129 r2245+729M 1a52e03
Настройки программы : cabac=1 / ref=4 / deblock=1:1:-1 / analyse=0x3:0x113 / me=umh / subme=9 / psy=1 / fade_compensate=0.00 / psy_rd=1.00:0.00 / mixed_ref=1 / me_range=24 / chroma_me=1 / trellis=2 / 8x8dct=1 / cqm=0 / deadzone=21,11 / fast_pskip=1 / chroma_qp_offset=-2 / threads=8 / lookahead_threads=1 / sliced_threads=0 / nr=0 / decimate=1 / interlaced=0 / bluray_compat=0 / constrained_intra=0 / fgo=0 / bframes=9 / b_pyramid=2 / b_adapt=2 / b_bias=0 / direct=1 / weightb=1 / open_gop=0 / weightp=2 / keyint=240 / keyint_min=24 / scenecut=40 / intra_refresh=0 / rc=crf / mbtree=0 / crf=18.0 / qcomp=0.72 / qpmin=0 / qpmax=69 / qpstep=4 / ip_ratio=1.40 / pb_ratio=1.30 / aq=1:0.85
Дата кодирования : UTC 2016-01-07 20:07:41
Дата пометки : UTC 2016-01-07 20:07:46
Основные цвета : BT.709
Характеристики трансфера : BT.709
Коэффициенты матрицы : BT.709

Аудио
Идентификатор : 2
Формат : AAC
Формат/Информация : Advanced Audio Codec
Профиль формата : LC
Идентификатор кодека : 40
Продолжительность : 23 м.
Вид битрейта : Переменный
Битрейт : 192 Кбит/сек
Максимальный битрейт : 231 Кбит/сек
Каналы : 2 канала
Расположение каналов : Front: L R
Частота : 48,0 КГц
Метод сжатия : С потерями
Размер потока : 32,8 Мбайт (8%)
Язык : Japanese
Дата кодирования : UTC 2016-01-07 16:51:26
Дата пометки : UTC 2016-01-07 20:07:46


Обновите торент файл, добавлена 4я серия

Трекер:  [ 02-Фев-2016 17:30 ]

  

Скачать .torrent

Размер .torrent файла 18 KB


Размер: 1.68 GB
Хэш (hash) релиза: c22825152dc7ca46224a83e53729f56e74cf1929
Подписка на обновления:

Торренты, похожие на Норн9: Норн + Нонет Norn9: Norn + Nonetto скачать торрент

Форум Название Автор Размер S L Добавлен
Аниме | HD Rips ·· Норн9: Норн + Нонет / Norn9: Norn + Nonetto (Або Такао) [TV] [1 из 12] [Без хардсаба] [JAP+SUB] [2016 г., романтика, гарем, фэнтези, приключения, школа, HDTVRip] [720p] Galfimbul 451558035431 MB 0 0 1452465903

01:45

11-Янв-16

Еще никто не оставлял запись к записи скачать торрент Норн9: Норн + Нонет Norn9: Norn + Nonetto . Будь первым!

!Обратная связь