Скачать через торрент Тяжёлый объект Heavy Object бесплатно Аниме Все серии на русском torrent

Если у вас наблюдаются проблемы со скриншотами, переходом по ссылками, скачиванием торрентов - проблемы в блокировщике рекламы AdBlock. #хорошегоДня!


Статистика раздачи
Размер:  11.59 GB   |    Зарегистрирован:  1 год 10 месяцев   |    .torrent скачан:  21 раз   |   
Раздают:  1  
   
Загрузка...
 
Автор Сообщение

Galfimbul

avatar Galfimbul



Год выпуска: 2015
Страна: Япония
Жанр: приключения
Продолжительность: ТВ, 24 эп. по 25 мин.
Выпуск: c 03.10.2015
Перевод:
<ol class="post-ul">
русские субтитры от YakuSub Studio (полные/вспомогательные)
редактор: Aero, переводчики: Nika_Elrik, Selfish
</ol>
Русская озвучка:
<ol class="post-ul">
многоголосая от KANSAI
Режиссер: Канэко Хираку
Студия: J.C. Staff
Описание:
В альтернативном будущем создали абсолютное оружие – огромные мобильные крепости, названные Объектами. Для неуязвимых броневых монстров нет преград на земле и на море, а управлять такими могут даже хрупкие девушки (чем они, собственно, и занимаются). Страны мира «перезагрузились» в четыре новых глобальных союза, но войны стали проще и честнее – сражаются только Объекты, остальные войска превратились в силы обеспечения, проигравшая сторона исполняет требования победителя.

На затерянной в снегах Аляски военной базе служат два товарища – опальный аристократ Хейвия, страдающий за длинный язык, и бедный студент Квинсер, мечтающий выучиться технике и открыть свое дело. Вся база работает на Объект «Бэби-гигант», который пилотирует очаровательная Милинда. Но с милашкой-пилотом особо не поболтаешь, ибо командир базы, майор Фролейтия – не просто роковая женщина, а мастер находить работу двум молодым разгильдяям. Увы, спокойные дни остаются в прошлом, когда из снежной бури приходит враг. Теперь четверо героев выживут или погибнут только вместе!
© Hollow, World Art
Информационные ссылки: AniDB || World Art || MAL
Качество: BDRip
Энкод: Vladdrako & DJATOM [Beatrice-Raws]
Тип видео: без хардсаба, без линковки
Формат: MKV
Видео: x264, (10bit), 1920x1080, ~ 11Mbps, 23,976 fps
Аудио JAP: FLAC, 16bit, 777kbps, 48000Hz, 2ch
Аудио JAP 2: FLAC, 24bit, 1770kbps, 48000Hz, 2.1ch (внешними файлами)
Аудио JAP 3: AC3, 192kbps, 48000Hz, 2ch (Audio Commentary, внешними файлами)
Аудио RUS: AC3, 192kbps, 48000Hz, 2ch (внешними файлами)
[url]...5144924[/url] - 1080р
ОбщееУникальный идентификатор : 209219620389648943954776596222510063859 (0x9D663BB216D5BB6CB0B6828042A760F3)Полное имя : K:\[Beatrice-Raws] Heavy Object (Vol 1-2) [BDRip 1920x1080 x264 FLAC]\[Beatrice-Raws] Heavy Object 01 [BDRip 1920x1080 x264 FLAC].mkvФормат : MatroskaВерсия формата : Version 4 / Version 2Размер файла : 1,94 ГбайтПродолжительность : 23 м.Режим общего битрейта : ПеременныйОбщий поток : 11,7 Мбит/секДата кодирования : UTC 2016-02-10 12:26:50Программа кодирования : mkvmerge v8.8.0 ('Wind at my back') 64bitБиблиотека кодирования : libebml v1.3.3 + libmatroska v1.4.4

ВидеоИдентификатор : 1Формат : AVCФормат/Информация : Advanced Video CodecПрофиль формата : High 10@L5Параметр CABAC формата : ДаПараметр ReFrames формата : 4 кадраИдентификатор кодека : V_MPEG4/ISO/AVCПродолжительность : 23 м.Битрейт : 11,0 Мбит/секШирина : 1920 пикселейВысота : 1080 пикселейСоотношение сторон : 16:9Режим частоты кадров : ПостоянныйЧастота кадров : 23,976 (24000/1001) кадра/секЦветовое пространство : YUVСубдискретизация насыщенности : 4:2:0Битовая глубина : 10 битТип развёртки : ПрогрессивнаяБит/(Пиксели*Кадры) : 0.220Размер потока : 1,81 Гбайт (93%)Заголовок : BDRip by Vladdrako & DJATOMБиблиотека кодирования : x264 core 148 r2597M e86f3a1 (DJATOM's build)Настройки программы : cabac=1 / ref=4 / deblock=1:1:-1 / analyse=0x3:0x133 / me=umh / subme=9 / psy=1 / fade_compensate=0.00 / psy_rd=1.00:0.00 / mixed_ref=1 / me_range=32 / chroma_me=1 / trellis=2 / 8x8dct=1 / cqm=0 / deadzone=21,11 / fast_pskip=1 / chroma_qp_offset=-2 / threads=9 / lookahead_threads=1 / sliced_threads=0 / nr=0 / decimate=1 / interlaced=0 / bluray_compat=0 / constrained_intra=0 / bframes=9 / b_pyramid=2 / b_adapt=2 / b_bias=0 / direct=1 / weightb=1 / open_gop=0 / weightp=2 / keyint=250 / keyint_min=23 / scenecut=40 / intra_refresh=0 / rc=crf / mbtree=0 / crf=15.0000 / qcomp=0.72 / qpmin=0 / qpmax=81 / qpstep=4 / ip_ratio=1.40 / pb_ratio=1.30 / aq=1:0.85Язык : JapaneseDefault : ДаForced : НетЦветовой диапазон : LimitedОсновные цвета : BT.709Характеристики трансфера : BT.709Коэффициенты матрицы : BT.709

АудиоИдентификатор : 2Формат : FLACФормат/Информация : Free Lossless Audio CodecИдентификатор кодека : A_FLACПродолжительность : 23 м.Вид битрейта : ПеременныйБитрейт : 777 Кбит/секКаналы : 2 каналаРасположение каналов : Front: L RЧастота : 48,0 КГцЧастота кадров : 11,719 кадров/сек (4096 spf)Битовая глубина : 16 битРазмер потока : 132 Мбайт (7%)Заголовок : LPCM->FLACБиблиотека кодирования : libFLAC 1.3.1 (UTC 2014-11-25)Язык : JapaneseDefault : ДаForced : Нет

Меню00:00:00.000 : :Part A00:05:00.050 : :Part B00:12:56.067 : :Part C00:22:01.070 : :ED00:23:31.076 : :Next
</ol>

Трекер:  [ 10-Фев-2016 15:00 ]

  

Скачать .torrent

Размер .torrent файла 34 KB


Размер: 11.59 GB
Хэш (hash) релиза: a8f1429ef3345be234eb33f787ba769c314477cc
Подписка на обновления:

Торренты, похожие на Тяжёлый объект Heavy Object скачать торрент

Форум Название Автор Размер S L Добавлен
Аниме | Rips ·· Тяжёлый объект / Heavy Object (Ватанабэ Такаси) [TV] [24 из 24] [Без хардсаба] [RUS(int), JAP+SUB] [2015, Приключения, фантастика, меха, BDRip] [720p] [HD] Galfimbul 82841551437.72 GB 0 0 1504884728

18:32

8-Сен-17

Аниме | HD Rips ·· Тяжёлый объект / Heavy Object (Канэко Хираку) [TV] [24 из 24] [без хардсаба] [RUS(ext), JAP+SUB] [2015, приключения, фантастика, меха, BDRemux] [1080p] Galfimbul 150617229256140.27 GB 0 0 1482343519

21:05

21-Дек-16

Аниме | HD Rips ·· Тяжёлый объект / Heavy Object (Канэко Хираку) [TV] [01-15 из 24] [без хардсаба] [RUS(ext), JAP+SUB] [2015, приключения, фантастика, меха, BDRemux] [1080p] Galfimbul 9438268471087.9 GB 0 0 1476916544

01:35

20-Окт-16

Аниме | HD Rips ·· Тяжёлый объект / Heavy Object (Ватанабэ Такаси) [TV] [12 из 24] [Без хардсаба] [RUS(ext), JAP+SUB] [2015 г., приключения, фантастика, меха, BDRip] [1080p] Galfimbul 2318017672721.59 GB 0 0 1470678420

20:47

8-Авг-16

Аниме | HD Rips ·· Тяжёлый объект / Heavy Object (Ватанабэ Такаси) [TV] [9 из 24] [Без хардсаба] [RUS(ext), JAP+SUB] [2015 г., приключения, фантастика, меха, BDRip] [1080p] Galfimbul 1771702580016.5 GB 0 0 1468071101

16:31

9-Июл-16

Аниме | HD Rips ·· Тяжёлый объект / Heavy Object (Канэко Хираку) [TV] [1-9 из 24] [Без хардсаба] [RUS(ext), JAP+SUB] [2015 г., приключения, BDRip] [1080p] Galfimbul 1740899995716.21 GB 0 0 1465542239

10:03

10-Июн-16

Аниме | Rips ·· Тяжёлый объект / Heavy Object [TV] [01-21 из 24] [Без хардсаба] [RUS(ext), JAP] & [01-20 из 24] [SUB] [2015 г., Приключения, Фантастика, Меха, Этти, HDTVRip] [720p] Galfimbul 1225895505911.42 GB 0 0 1457281210

19:20

6-Мар-16

Аниме | HD Rips ·· Тяжёлый объект / Heavy Object (Канэко Хираку) [TV] [3 из 24] [без хардсаба] [RUS(ext), JAP+SUB] [2015 г., приключения, BDRip] [720p] Galfimbul 27048575832.52 GB 0 0 1452015391

20:36

5-Янв-16

Аниме | HD Rips ·· Тяжёлый объект / Heavy Object (Ватанабэ Такаси) [TV] [3 из 24] [Без хардсаба] [JAP+SUB] [2015 г., приключения, фантастика, меха, драма, комедия, сэйнэн BDRip] [720p] Galfimbul 26019735132.42 GB 0 0 1452007136

18:18

5-Янв-16

Аниме | HD Rips ·· Тяжёлый объект / Heavy Object (Ватанабэ Такаси) [TV] [3 из 24] [Без хардсаба] [JAP+SUB] [2015 г., приключения, фантастика, меха, драма, комедия, сэйнэн BDRip] [1080p] Galfimbul 59016797585.5 GB 0 0 1451903720

13:35

4-Янв-16

Аниме | HD Rips ·· Тяжёлый объект / Heavy Object (Ватанабэ Такаси) [TV] [Без хардсаба] [5 из 12] [JAP+SUB] & [4 из 12] [RUS(ext)] [2015 г., приключения, фантастика, меха, драма, комедия, сэйнэн HDTVRip] [720p] Galfimbul 29298043702.73 GB 0 0 1446529994

08:53

3-Ноя-15

Аниме | Rips ·· Тяжёлый объект / Heavy Object [TV] [01-02 из 12] [Без хардсаба] [RUS(ext), JAP, SUB] [2015 г., Приключения, Фантастика, Меха, HDTVRip] [720p] Galfimbul 13505624871.26 GB 0 0 1444858869

00:41

15-Окт-15

Аниме | Rips ·· Тяжёлый объект / Heavy Object [TV] [01 из 12] [Без хардсаба] [RUS(ext), JAP] [2015 г., Приключения, Фантастика, Меха, HDTVRip] [720p] Galfimbul 661632472631 MB 0 0 1443927435

05:57

4-Окт-15

Манга ·· Kazuma Kamachi - Тяжёлый Объект/Heavy Object [ranobe] [Том 1, часть 1] [2011 г., Фантастика] [incomplete] Galfimbul 33112893 MB 0 0 1367526627

23:30

2-Май-13

Еще никто не оставлял запись к записи скачать торрент Тяжёлый объект Heavy Object . Будь первым!

!Обратная связь