Скачать через торрент Токийский гуль Tokyo Ghoul бесплатно Аниме Все серии на русском torrent

Если у вас наблюдаются проблемы со скриншотами, переходом по ссылками, скачиванием торрентов - проблемы в блокировщике рекламы AdBlock. #хорошегоДня!


Статистика раздачи
Размер:  801 MB   |    Зарегистрирован:  1 год 9 месяцев   |    .torrent скачан:  26 раз   |   
Раздают:  1  
   
Загрузка...
 
Автор Сообщение

Galfimbul

avatar Galfimbul


Токийский гуль / Tokyo Ghoul

Страна: Япония
Год выпуска: 2015 г.
Жанр: приключения, мистика
Тип: OVA
Продолжительность: 2 эп. по 25 мин.
Режиссер: Шимада Соичи (эп. 1), Мацубаяши Тадахито (эп. 2)
Студия: Studio Pierrot

Описание: Приквел рассказывает о ещё молодом следователе Кисё Ариме и Таиши Фуре. Чтобы узнать правду о гибели друга Фуры, они преследуют гуля Лантерна из 13-го района. OVA основана на одноимённой манге Суи Ишиды, издававшейся в электронном журнале Jump LIVE.

Качество: BDRip
Тип релиза: Без хардсаба
Формат видео: MР4
Наличие линковки: Нет
Релиз/Автор рипа: Ohys-Raws
Видео: H264, 1280x720, 8bits, 2314kbps, 23.976fps
Аудио: AAC, 2ch, 206kbps, 48kHz Язык Японский
Субтитры: ass, отдельным файлом Язык субтитров русский ;
#1 Перевод: Hiruzawa (SKH-Sub) ; Редактор/Оформление: Nyam Maro (YakuSub Studio)
#2 Перевод: Anku ; Редактор: mutagenb (Cafesubs)
#3 Перевод: Locheed ; Редактор: Smile ; Оформление: Werebeast (TapkiSubs)
Format : MPEG-4Format profile : Base MediaCodec ID : isomFile size : 542 MiBDuration : 30mn 2sOverall bit rate mode : VariableOverall bit rate : 2 524 Kbps

VideoID : 1Format : AVCFormat/Info : Advanced Video CodecFormat profile : Main@L4.1Format settings, CABAC : YesFormat settings, ReFrames : 4 framesCodec ID : avc1Codec ID/Info : Advanced Video CodingDuration : 30mn 2sBit rate : 2 314 KbpsMaximum bit rate : 11.3 MbpsWidth : 1 280 pixelsHeight : 720 pixelsDisplay aspect ratio : 16:9Frame rate mode : ConstantFrame rate : 23.976 fpsColor space : YUVChroma subsampling : 4:2:0Bit depth : 8 bitsScan type : ProgressiveBits/(Pixel*Frame) : 0.105Stream size : 497 MiB (92%)Writing library : x264 core 148 r2597 e86f3a1Encoding settings : cabac=1 / ref=3 / deblock=1:0:0 / analyse=0x1:0x131 / me=umh / subme=9 / psy=1 / psy_rd=1.00:0.00 / mixed_ref=1 / me_range=32 / chroma_me=1 / trellis=1 / 8x8dct=0 / cqm=0 / deadzone=21,11 / fast_pskip=1 / chroma_qp_offset=-2 / threads=12 / lookahead_threads=1 / sliced_threads=0 / nr=0 / decimate=1 / interlaced=0 / bluray_compat=0 / constrained_intra=0 / bframes=3 / b_pyramid=2 / b_adapt=1 / b_bias=0 / direct=1 / weightb=1 / open_gop=0 / weightp=2 / keyint=240 / keyint_min=1 / scenecut=40 / intra_refresh=0 / rc_lookahead=40 / rc=crf / mbtree=1 / crf=17.0 / qcomp=0.60 / qpmin=0 / qpmax=69 / qpstep=4 / ip_ratio=1.40 / aq=1:1.00

AudioID : 2Format : AACFormat/Info : Advanced Audio CodecFormat profile : LCCodec ID : 40Duration : 30mn 2sBit rate mode : VariableBit rate : 206 KbpsMaximum bit rate : 260 KbpsChannel count : 2 channelsChannel positions : Front: L RSampling rate : 48.0 KHzCompression mode : LossyStream size : 44.2 MiB (8%)Language : Japanese
1. Jack
2. Pinto


Трекер:  [ 15-Фев-2016 15:30 ]

  

Скачать .torrent

Размер .torrent файла 16 KB


Размер: 801 MB
Хэш (hash) релиза: d6f734eeb3bc5fc095cc7e73c99d60ebf2574acb
Подписка на обновления:

Торренты, похожие на Токийский гуль Tokyo Ghoul скачать торрент

Форум Название Автор Размер S L Добавлен
Аниме | Rips ·· Токийский Гуль / Tokyo Ghoul / Токийский монстр [TV] [12 из 12] [Без хардсаба] [RUS(int)] [2014 г., экшен, мистика, драма, ужасы, HDTVRip] [720p] Galfimbul 42141929593.92 GB 0 0 1411813882

13:31

27-Сен-14

Аниме | Rips ·· Токийский монстр / Токийский гуль / Tokyo Ghoul [TV] [01-12 из 12] [без хардсаба] [RUS(int), JAP+SUB] [2014 г., приключения, ужасы, мистика, психология, сёнэн, сверхъестественное, HDTVRip] [720p] Galfimbul 49829034424.64 GB 1 1 1411232568

20:02

20-Сен-14

Аниме | HD Rips ·· Токийский гуль / Tokyo Ghoul (Симада Сойти, Мацубаяси Тадахито) [OVA] [2 из 2] [без хардсаба] [RUS(ext), JAP+SUB] [2015, мистика, ужасы, драма, BDRemux] [1080p] Galfimbul 1655055526615.41 GB 0 0 1476652278

00:11

17-Окт-16

Аниме | Rips ·· Токийский гуль / Tokyo Ghoul (Симада Сойти, Мацубаяси Тадахито) [OVA] [2 из 2] [без хардсаба] [RUS(ext),JAP+SUB] [2015 г., мистика, ужасы, драма, BDRip] [720p] Galfimbul 12244926521.14 GB 0 0 1472737224

16:40

1-Сен-16

Аниме | HD Rips ·· Токийский гуль / Tokyo Ghoul (Симада Сойти) [OVA] [1-2 из 2] [без хардсаба] [RUS(int), JAB+SUB] [2015 г., приключения, мистика, ужасы, BDRip] [1080p] Galfimbul 19853491481.85 GB 0 0 1452893256

00:27

16-Янв-16

Аниме | HD Rips ·· Токийский гуль / Tokyo Ghoul (Морита Сюхэй) [OVA] [1 из 2] [без хардсаба] [RUS(int), JAB+SUB] [2015 г., приключения, мистика, ужасы, BDRip] [1080p] Galfimbul 10606917431012 MB 0 0 1447454337

01:38

14-Ноя-15

Аниме | Rips ·· Токийский гуль / Tokyo Ghoul (Шухей Морита) [TV] [01-03 из 12] [без хардсаба] [RUS(int), JAB+SUB] [2014 г., ужасы, фантастика, сёнэн, приключения, психология, сверхъестественное, мистика, BDRip] [1080p] Galfimbul 18342318081.71 GB 0 0 1414177450

22:04

24-Окт-14

Аниме | Rips ·· Токийский Гуль / Tokyo Ghoul [TV] [Без хардсаба] [1 из 12] [JAP+SUB] [2014 г. Триллер, ужасы, экшн, приключения, BDRip] [720p] Galfimbul 591357857564 MB 0 0 1414175694

21:34

24-Окт-14

Аниме | HD Rips ·· Токийский Гуль / Tokyo Ghoul [TV] [1 из 12] [Без хардсаба] [JAP, SUB] [2014 г., Триллер, ужасы, экшн, приключения, BDRip] [1080p] Galfimbul 12807503141.19 GB 0 0 1414175684

21:34

24-Окт-14

Аниме | Rips ·· Токийский гуль / Tokyo Ghoul [TV] [01-06 из 12] [Без хардсаба] [RUS(int)] [2014 г., ужасы, фантастика, приключения, психология, сверхъестественное, мистика, HDTVRip] [720p] Galfimbul 21058025801.96 GB 0 0 1409056078

15:27

26-Авг-14

Аниме | Rips ·· Токийский гуль / Tokyo Ghoul (Шухей Морита) [TV] [01-08 из 12] [без хардсаба] [RUS(int), JAB+SUB] [2014 г., ужасы, фантастика, сёнэн, приключения, психология, сверхъестественное, мистика, HDTVRip] [720p] Galfimbul 30451490532.84 GB 0 0 1409056024

15:27

26-Авг-14

Аниме | Rips ·· Токийский Гуль / Tokyo Ghoul [TV] [Без хардсаба] [8 из 12] [JAP+SUB] & [2 из 12] [Rus(ext)] [2014 г. Триллер, ужасы, экшн, приключения, HDTVRip] [720p] Galfimbul 29981298362.79 GB 0 0 1409055933

15:25

26-Авг-14

Аниме | Rips ·· Токийский Гуль / Tokyo Ghoul [TV] [1-8 из >12] [Без хардсаба] [RUS(int)] [2014 г., экшен, мистика, драма, ужасы, HDTVRip] [720p] Galfimbul 29227020682.72 GB 0 0 1409055904

15:25

26-Авг-14

Аниме | Rips ·· Токийский Гуль / Tokyo Ghoul [TV] [1-8 из >12] [Без хардсаба] [RUS(int)] [2014 г., экшен, мистика, драма, ужасы, HDTVRip] [HWP] Galfimbul 22883758082.13 GB 0 0 1409055882

15:24

26-Авг-14

Аниме | HD Rips ·· Токийский гуль / Токийский монстр / Tokyo Ghoul [TV] [без хардсаба] [JAP+SUB] [9 из 12] & [RUS(ext)] [8 из 12] [2014 г., приключения, HDTVRip] [720p] Galfimbul 34883948553.25 GB 0 0 1409310061

14:01

29-Авг-14

Аниме | Rips ·· Токийский Гуль [ТВ-2] / Tokyo Ghoul [ТВ-2] / Tokyo Ghoul A [1 из 12] [Без хардсаба] [RUS(int), JAP+SUB] [2015 г., триллер, ужасы, экшн, приключения, HDTVRip] [720p] Galfimbul 456202511435 MB 0 0 1420850814

03:46

10-Янв-15

Аниме | Rips ·· Токийский гуль (ТВ-1) / Tokyo Ghoul [TV] [1 из 12] [без хардсаба] [RUS(int)] [2014, приключения, мистика, ужасы, сэйнэн, SATRip] Galfimbul 324992079310 MB 0 0 1512410524

21:02

4-Дек-17

Аниме | HD Rips ·· Токийский гуль (ТВ-2) / Tokyo Ghoul Root A (Морита Сюхэй) [TV] [12 из 12] [без хардсаба] [RUS(ext), JAP+SUB] [2015 г., мистика, ужасы, BDRemux] [1080p] Galfimbul 8900495273882.89 GB 0 0 1476494832

04:27

15-Окт-16

Аниме | HD Rips ·· Токийский гуль (ТВ-2) / Tokyo Ghoul Root A (Морита Сюхэй) [TV] [12 из 12] [без хардсаба] [RUS(ext), JAP+SUB] [2015 г., мистика, ужасы, BDRip] [1080p] Galfimbul 2007463110718.7 GB 0 0 1449145892

15:31

3-Дек-15

Еще никто не оставлял запись к записи скачать торрент Токийский гуль Tokyo Ghoul . Будь первым!

!Обратная связь