Скачать через торрент Уроки современного искусства GA: Geijutsuka Art Design Class бесплатно Аниме Все серии на русском torrent

Если у вас наблюдаются проблемы со скриншотами, переходом по ссылками, скачиванием торрентов - проблемы в блокировщике рекламы AdBlock. #хорошегоДня!


Статистика раздачи
Размер:  15.98 GB   |    Зарегистрирован:  1 год 9 месяцев   |    .torrent скачан:  13 раз   |   
Раздают:  1  
   
Загрузка...
 
Автор Сообщение

Galfimbul

avatar Galfimbul


Уроки современного искусства / GA: Geijutsuka Art Design Class

Страна: Япония
Год выпуска: 2009 г.
Жанр: комедия, повседневность
Тип: TV
Продолжительность: 12 эп. по 24 мин. + 1 special 24 мин.
Выпуск: c 07.07.2009 по 22.09.2009
Перевод:
• Русские субтитры от KBM Team
Режиссер: Сакурай Хироаки
Студия: AIC Plus+
Описание:
Неуклюжая мечтательница Кисараги и сама не поняла, зачем в старшей школе выбрала клуб современного искусства, где учат всему – от живописи до арт-дизайна. Но, как говорится: «не можешь – поможем…», чем активно занялись ее новые подруги – гиперактивная Томоканэ, шаловливая малышка Нода-тян, заботливая Намико и невозмутимая всезнайка Мияби по прозвищу «Профессор». Теперь для бедной Кисараги каждый день – это ураган шуток, розыгрышей и свежих идей, а каждый арт-проект – отчаянная попытка создать что-то новое и креативное не ценой потери рассудка и здравого смысла.

Вы спросите – сколько можно снимать аниме про занятую интересным делом компанию из пяти девушек? Да сколько нужно, лишь бы шутки и идеи не кончались!

© Hollow, World Art
Качество: BDRip
Тип релиза: Без хардсаба
Формат видео: MP4
Наличие линковки: Нет
Видео: x264 (Hi10p), 1920x1080, ~6074 kbps, 29.970 fps
Аудио JAP: AAC, ~296 kbps, 48 kHz, 2ch
01. Drawing Fun
02. God's Pencil
03. Onigokko Collage
04. The One Who Left Behind the Photo and Wit
05. Design for life
06. Art Club Residence
07. Trompe-l'oeil
08. Materials Warehouse GA
09. Stormy Daydream
10. The Title is 'The Boundary Between Life and Death'
11. Happy Ending
12. Hexenkessel

Special
I Want to Draw the Blue Sky
GeneralComplete name : ...\GA Geijutsuka Art Design Class - 01 [Drawing Fun] (BD 1920x1080i x264 10bit).mp4Format : MPEG-4Format profile : Base MediaCodec ID : isom (isom)File size : 1.05 GiBDuration : 23mn 40sOverall bit rate mode : VariableOverall bit rate : 6 374 KbpsEncoded date : UTC 2012-12-25 11:13:45Tagged date : UTC 2012-12-25 11:13:45

VideoID : 1Format : AVCFormat/Info : Advanced Video CodecFormat profile : High 10@L4.1Format settings, CABAC : YesFormat settings, ReFrames : 4 framesCodec ID : avc1Codec ID/Info : Advanced Video CodingDuration : 23mn 40sBit rate mode : VariableBit rate : 6 074 KbpsMaximum bit rate : 100.0 MbpsWidth : 1 920 pixelsHeight : 1 080 pixelsDisplay aspect ratio : 16:9Frame rate mode : ConstantFrame rate : 29.970 (30000/1001) fpsColor space : YUVChroma subsampling : 4:2:0Bit depth : 10 bitsScan type : MBAFFScan type, store method : Interleaved fieldsScan order : Top Field FirstBits/(Pixel*Frame) : 0.098Stream size : 1.00 GiB (95%)Writing library : x264 core 129 r2230 1cffe9fEncoding settings : cabac=1 / ref=4 / deblock=1:0:0 / analyse=0x3:0x113 / me=umh / subme=9 / psy=1 / psy_rd=1.00:0.25 / mixed_ref=1 / me_range=32 / chroma_me=1 / trellis=2 / 8x8dct=1 / cqm=0 / deadzone=21,11 / fast_pskip=0 / chroma_qp_offset=-4 / threads=9 / lookahead_threads=1 / sliced_threads=0 / nr=0 / decimate=0 / interlaced=tff / bluray_compat=0 / constrained_intra=0 / bframes=3 / b_pyramid=2 / b_adapt=2 / b_bias=0 / direct=3 / weightb=1 / open_gop=0 / weightp=0 / keyint=300 / keyint_min=1 / scenecut=60 / intra_refresh=0 / rc_lookahead=60 / rc=crf / mbtree=1 / crf=17.0 / qcomp=0.90 / qpmin=0 / qpmax=81 / qpstep=12 / vbv_maxrate=100000 / vbv_bufsize=100000 / crf_max=0.0 / nal_hrd=vbr / ip_ratio=1.40 / aq=1:0.70Encoded date : UTC 2012-12-25 09:17:56Tagged date : UTC 2012-12-26 12:22:10Color range : LimitedColor primaries : BT.709Transfer characteristics : BT.709Matrix coefficients : BT.709

AudioID : 2Format : AACFormat/Info : Advanced Audio CodecFormat profile : LCCodec ID : 40Duration : 23mn 40sBit rate mode : VariableBit rate : 296 KbpsMaximum bit rate : 494 KbpsChannel(s) : 2 channelsChannel positions : Front: L RSampling rate : 48.0 KHzFrame rate : 46.875 fps (1024 spf)Compression mode : LossyStream size : 50.2 MiB (5%)Title : mainLanguage : JapaneseEncoded date : UTC 2012-12-25 11:14:32Tagged date : UTC 2012-12-26 12:22:10

Menu00:00:00.000 : Introduction00:01:53.046 : Opening00:03:23.003 : A-part00:13:12.992 : B-part00:21:54.980 : Ending00:23:25.004 : Next time
1. Установить K-Lite Codec Pack последней версии со стандартными настройками (c LAV декодерами, Media Player Classic и Custom Presenter ). Дальнейшие манипуляции с плеером не обязательны.
2. Установить VLC Media Player последней версии. Во время воспроизведения видео найти вверху вкладку Видео->Устранение чересстрочности(поставить "включено")->Режим устранения(по вкусу, у меня стоит смешивание)


Трекер:  [ 21-Фев-2016 21:00 ]

  

Скачать .torrent

Размер .torrent файла 49 KB


Размер: 15.98 GB
Хэш (hash) релиза: 1c40d41d66b4768959c9c0dfbd07186f7ca4aabf
Подписка на обновления:

Торренты, похожие на Уроки современного искусства GA: Geijutsuka Art Design Class скачать торрент

Форум Название Автор Размер S L Добавлен
Аниме | HD Rips ·· Уроки современного искусства / GA: Geijutsuka Art Design Class [TV] [12+1 из 12+1] [Без хардсаба] [JAP+SUB] [2009 г., комедия, повседневность, BDRip] [720p] Galfimbul 58497308615.45 GB 0 0 1456353784

01:43

25-Фев-16

Аниме | Rips ·· Уроки современного искусства / GA: Geijutsuka Art Design Class [TV][1-12 из 12][RUS(int), JAP+SUB][2009 г., комедия, повседневность,DTVRip][любительская] L 37124355073.46 GB 0 0 1309924432

06:53

6-Июл-11

Еще никто не оставлял запись к записи скачать торрент Уроки современного искусства GA: Geijutsuka Art Design Class . Будь первым!

!Обратная связь