Скачать через торрент Наше Bokurano бесплатно Аниме Все серии на русском torrent

Если у вас наблюдаются проблемы со скриншотами, переходом по ссылками, скачиванием торрентов - проблемы в блокировщике рекламы AdBlock. #хорошегоДня!


Статистика раздачи
Размер:  32.71 GB   |    Зарегистрирован:  1 год 9 месяцев   |    .torrent скачан:  56 раз   |   
Раздают:  1  
   
Загрузка...
 
Автор Сообщение

Galfimbul

avatar Galfimbul


Наше / Bokurano

Страна: Япония
Год выпуска: 2007 г.
Жанр: драма, фантастика, меха
Тип: TV
Продолжительность: 24 эп, ~25 мин. серия
Режиссер: Морита Хироюки
Описание: Пятнадцать подростков из летней школы находят пещеру, а в ней странного человека, который предлагает им сыграть в компьютерную игру. Достаточно лишь зарегистрироваться – и можно управлять гигантским роботом в сражении с огромным чудовищем. Однако, вскоре становится понятно, что игра гораздо серьёзнее, что это испытание не только для участников, и что ставки глобальнее, чем можно себе вообразить.

На первый взгляд, это очередной меха-сёнэн: боевой робот, враги с разной внешностью и способностями, подростки с их болезненными эмоциями и вечными проблемами... Но «Bokurano» посвящён не столько боям и взрослению, сколько реальному миру, вопросам жизни и смерти, царящей вокруг несправедливостью, которая редко бывает наказана, и холодному расчёту тех, кто обладает властью.

Здесь нет снисходительной жалости или исключения из правил, и когда в дело вмешиваются политики, гигантский робот «Зеэрс» уже не воспринимается как что-то необыкновенное. Скорее, это стихийное бедствие, в которое втянуто множество невинных людей. Никто не сделает «скидку на возраст» для героев-школьников – всем вместе и каждому по отдельности им придётся заниматься спасением мира, даже если кажется, что этот мир не заслуживает спасения, и пусть даже не будет почётного пьедестала для победителя...

© Расселл Д. Джонс, World Art

Доп. информация: Перевод с английского и озвучивание от "Девушки" из Project JD по заказу компании Animegroup в 2008 году.

Качество: DVD5
Формат экрана: 16:9
Система / Разрешение: NTSC (720x480)
Средний битрейт: 7586
Аудио: AC-3, 192 Kbps, 2 channels Язык Русский
Аудио 2: AC-3, 448 Kbps, 2 channels Язык Японский
Аудио 3: AC-3, 192 Kbps, 2 channels Язык Японский (комментарии)
Язык субтитров: русский
GeneralComplete name : D:\Films\Bokurano\1\VIDEO_TS\VTS_01_2.VOBFormat : MPEG-PSFile size : 1 024 MiBDuration : 18mn 52sOverall bit rate mode : VariableOverall bit rate : 7 586 Kbps

VideoID : 224 (0xE0)Format : MPEG VideoFormat version : Version 2Format profile : Main@MainFormat settings, BVOP : YesFormat settings, Matrix : CustomFormat settings, GOP : VariableFormat settings, picture st : FrameDuration : 18mn 52sBit rate mode : VariableBit rate : 6 603 KbpsMaximum bit rate : 9 800 KbpsWidth : 720 pixelsHeight : 480 pixelsDisplay aspect ratio : 16:9Frame rate : 29.970 fpsStandard : NTSCColor space : YUVChroma subsampling : 4:2:0Bit depth : 8 bitsScan type : InterlacedScan order : Top Field FirstCompression mode : LossyBits/(Pixel*Frame) : 0.637Time code of first frame : 01:18:55:13Time code source : Group of pictures headerStream size : 891 MiB (87%)

Audio #1ID : 189 (0xBD)-128 (0x80)Format : AC-3Format/Info : Audio Coding 3Mode extension : CM (complete main)Format settings, Endianness : BigMuxing mode : DVD-VideoDuration : 18mn 52sBit rate mode : ConstantBit rate : 192 KbpsChannel(s) : 2 channelsChannel positions : Front: L RSampling rate : 48.0 KHzCompression mode : LossyDelay relative to video : -136msStream size : 25.9 MiB (3%)

Audio #2ID : 189 (0xBD)-129 (0x81)Format : AC-3Format/Info : Audio Coding 3Mode extension : CM (complete main)Format settings, Endianness : BigMuxing mode : DVD-VideoDuration : 18mn 52sBit rate mode : ConstantBit rate : 448 KbpsChannel(s) : 2 channelsChannel positions : Front: L RSampling rate : 48.0 KHzCompression mode : LossyDelay relative to video : -200msStream size : 60.5 MiB (6%)

Audio #3ID : 189 (0xBD)-130 (0x82)Format : AC-3Format/Info : Audio Coding 3Mode extension : CM (complete main)Format settings, Endianness : BigMuxing mode : DVD-VideoDuration : 18mn 52sBit rate mode : ConstantBit rate : 192 KbpsChannel(s) : 2 channelsChannel positions : Front: L RSampling rate : 48.0 KHzCompression mode : LossyDelay relative to video : -136msStream size : 25.9 MiB (3%)

TextID : 189 (0xBD)-32 (0x20)Format : RLEFormat/Info : Run-length encodingMuxing mode : DVD-Video

Menu


Трекер:  [ 28-Фев-2016 23:30 ]

  

Скачать .torrent

Размер .torrent файла 91 KB


Размер: 32.71 GB
Хэш (hash) релиза: 1d53a37b2b8a0a2f7e05de7f19f50b1e82d578ce
Подписка на обновления:

Еще никто не оставлял запись к записи скачать торрент Наше Bokurano . Будь первым!

!Обратная связь