Скачать через торрент Гилштейн Guilstein бесплатно Аниме Все серии на русском torrent

Если у вас наблюдаются проблемы со скриншотами, переходом по ссылками, скачиванием торрентов - проблемы в блокировщике рекламы AdBlock. #хорошегоДня!


Статистика раздачи
Размер:  6.32 GB   |    Зарегистрирован:  1 год 9 месяцев   |    .torrent скачан:  89 раз   |   
Раздают:  1  
   
Загрузка...
 
Автор Сообщение

Galfimbul

avatar Galfimbul


Гилштейн / Guilstein

Страна: Япония
Год выпуска: 2002 г.
Жанр: приключения, фантастика, ужасы
Тип: Movie
Продолжительность: 90 мин.
Режиссер: Томинага Цунэо

Описание: Set in the year 2088, it depicts a dark future in which humans have been transformed into the "Guilstein," creatures with no human souls in them...

Доп. информация: Перевод с японского и озвучивание - Юки Нацуи по заказу компании Animegroup в 2007 году. Субтитры делались дословно по тексту озвучивания с минимальным редактированием вроде согласования окончаний слов и исправления порядка слов в предложениях.

Качество: DVD9
Формат экрана: 4:3
Система / Разрешение: NTSC (720x480)
Средний битрейт: 7 149 Kbps
Аудио: AC-3, 192 Kbps, 2 channels Язык Русский
Аудио 2: AC-3, 448 Kbps, 2 channels Язык Японский
Язык субтитров: русский
GeneralComplete name : D:\Films\Guilstein\VIDEO_TS\VTS_01_1.VOBFormat : MPEG-PSFile size : 1 024 MiBDuration : 18mn 0sOverall bit rate mode : VariableOverall bit rate : 7 948 Kbps

VideoID : 224 (0xE0)Format : MPEG VideoFormat version : Version 2Format profile : Main@MainFormat settings, BVOP : YesFormat settings, Matrix : CustomFormat settings, GOP : M=3, N=15Format settings, picture st : FrameDuration : 18mn 0sBit rate mode : VariableBit rate : 7 149 KbpsMaximum bit rate : 9 800 KbpsWidth : 720 pixelsHeight : 480 pixelsDisplay aspect ratio : 4:3Frame rate : 29.970 fpsStandard : NTSCColor space : YUVChroma subsampling : 4:2:0Bit depth : 8 bitsScan type : InterlacedScan order : Top Field FirstCompression mode : LossyBits/(Pixel*Frame) : 0.690Stream size : 921 MiB (90%)

Audio #1ID : 189 (0xBD)-128 (0x80)Format : AC-3Format/Info : Audio Coding 3Mode extension : CM (complete main)Format settings, Endianness : BigMuxing mode : DVD-VideoDuration : 18mn 0sBit rate mode : ConstantBit rate : 192 KbpsChannel(s) : 2 channelsChannel positions : Front: L RSampling rate : 48.0 KHzCompression mode : LossyStream size : 24.7 MiB (2%)

Audio #2ID : 189 (0xBD)-129 (0x81)Format : AC-3Format/Info : Audio Coding 3Format profile : Dolby DigitalMode extension : CM (complete main)Format settings, Endianness : BigMuxing mode : DVD-VideoDuration : 18mn 0sBit rate mode : ConstantBit rate : 448 KbpsChannel(s) : 2 channelsChannel positions : Front: L RSampling rate : 48.0 KHzCompression mode : LossyStream size : 57.7 MiB (6%)

Menu


Трекер:  [ 29-Фев-2016 23:00 ]

  

Скачать .torrent

Размер .torrent файла 17 KB


Размер: 6.32 GB
Хэш (hash) релиза: fc9f7616690ed742bc04cd60a8c293fa78a4b646
Подписка на обновления:

Еще никто не оставлял запись к записи скачать торрент Гилштейн Guilstein . Будь первым!

!Обратная связь