Скачать через торрент Живущий в славном доме Космос Боевой Доккойдер Сутоко Sumeba Miyako no Cosmos-sou Suttoko Taisen Dokkoida бесплатно Аниме Все серии на русском torrent

Если у вас наблюдаются проблемы со скриншотами, переходом по ссылками, скачиванием торрентов - проблемы в блокировщике рекламы AdBlock. #хорошегоДня!


Статистика раздачи
Размер:  8.85 GB   |    Зарегистрирован:  1 год 9 месяцев   |    .torrent скачан:  53 раза   |   
Раздают:  1  
   
Загрузка...
 
Автор Сообщение

Galfimbul

avatar Galfimbul


Живущий в славном доме Космос Боевой Доккойдер Сутоко / Sumeba Miyako no Cosmos-sou Suttoko Taisen Dokkoida / Dokkoider

Страна: Япония
Год выпуска: 2003 г.
Жанр: приключения, комедия, фантастика, пародия
Тип: TV
Продолжительность: 12 эп, ~25 мин. серия
Режиссер: Мацуи Хитоюки
Описание: Авторы сумели пройти по грани между глупостью, фэнсервисом и рулёзом. Взяли ото всюду понемногу и собрали вместе, в гремучую смесь под невыговариваемым названием Sumeba miyako no cosmos-sou suttoko taisen dokkoida.
Более того, правильно почувствовав прелесть "контролируемого маразма" для передачи эмоций и втирания в доверие к зрителю, авторы при помощи невыносимо-бредовой ситуации сумели создать персонажей, и даже, в некоторой степени, заставить сопереживать им.
Откровенная пародия на пародию на меха-шоу 70тых всё же заставляет проникнуться пафосными позами, слоганами и боевым настроем. Она остаётся пародией, но пародией доброй, не высмеивающей саму суть (сравните с хенсином Puni Puni), а просто иронизирующим. Иронизирующим с симпатией.

© World Art

Доп. информация: Текст читает Евгения Лурье по заказу фирмы Сузаку в 2004 году. Здесь американское издание с низким битрейтом и отвратительным качество видео. Дополнительных материалов нет, но есть английские субтитры.

Качество: DVD5
Формат экрана: 4:3
Система / Разрешение: NTSC (720x480)
Средний битрейт: 2 723 Kbps
Аудио: AC-3, 448 Kbps, 2 channels Язык Японский
Аудио 2: AC-3, 448 Kbps, 2 channels Язык Русский
Язык субтитров: русский, английский
GeneralComplete name : D:\Films\DOKKOIDER\DOKKOIDER 01_04\VIDEO_TS\VTS_01_1.VOBFormat : MPEG-PSFile size : 1 024 MiBDuration : 38mn 46sOverall bit rate mode : VariableOverall bit rate : 3 692 Kbps

VideoID : 224 (0xE0)Format : MPEG VideoFormat version : Version 2Format profile : Main@MainFormat settings, BVOP : YesFormat settings, Matrix : CustomFormat settings, GOP : M=3, N=12Duration : 38mn 46sBit rate mode : VariableBit rate : 2 723 KbpsMaximum bit rate : 9 352 KbpsWidth : 720 pixelsHeight : 480 pixelsDisplay aspect ratio : 4:3Frame rate : 29.970 fpsStandard : NTSCColor space : YUVChroma subsampling : 4:2:0Bit depth : 8 bitsScan type : ProgressiveScan order : Top Field FirstCompression mode : LossyBits/(Pixel*Frame) : 0.263Time code of first frame : 00:00:00:00Time code source : Group of pictures headerGOP, Open/Closed : ClosedStream size : 755 MiB (74%)

Audio #1ID : 189 (0xBD)-128 (0x80)Format : AC-3Format/Info : Audio Coding 3Mode extension : CM (complete main)Format settings, Endianness : BigMuxing mode : DVD-VideoDuration : 38mn 46sBit rate mode : ConstantBit rate : 448 KbpsChannel(s) : 2 channelsChannel positions : Front: L RSampling rate : 48.0 KHzCompression mode : LossyStream size : 124 MiB (12%)

Audio #2ID : 189 (0xBD)-129 (0x81)Format : AC-3Format/Info : Audio Coding 3Mode extension : CM (complete main)Format settings, Endianness : BigMuxing mode : DVD-VideoDuration : 38mn 46sBit rate mode : ConstantBit rate : 448 KbpsChannel(s) : 2 channelsChannel positions : Front: L RSampling rate : 48.0 KHzCompression mode : LossyStream size : 124 MiB (12%)

Text #1ID : 189 (0xBD)-32 (0x20)Format : RLEFormat/Info : Run-length encodingMuxing mode : DVD-Video

Text #2ID : 189 (0xBD)-33 (0x21)Format : RLEFormat/Info : Run-length encodingMuxing mode : DVD-Video

Menu


Трекер:  [ 29-Фев-2016 23:00 ]

  

Скачать .torrent

Размер .torrent файла 24 KB


Размер: 8.85 GB
Хэш (hash) релиза: f7a9c3ae0c4e1014a39e8afa21ae941b4fe4f158
Подписка на обновления:

Еще никто не оставлял запись к записи скачать торрент Живущий в славном доме Космос Боевой Доккойдер Сутоко Sumeba Miyako no Cosmos-sou Suttoko Taisen Dokkoida . Будь первым!

!Обратная связь