Скачать через торрент Попотан Popotan бесплатно Аниме Все серии на русском torrent

Если у вас наблюдаются проблемы со скриншотами, переходом по ссылками, скачиванием торрентов - проблемы в блокировщике рекламы AdBlock. #хорошегоДня!


Статистика раздачи
Размер:  12.42 GB   |    Зарегистрирован:  1 год 9 месяцев   |    .torrent скачан:  63 раза   |   
Раздают:  1  
   
Загрузка...
 
Автор Сообщение

Galfimbul

avatar Galfimbul


Попотан / Popotan

Страна: Япония
Год выпуска: 2003 г.
Жанр: комедия, драма, мистика, этти
Тип: TV
Продолжительность: 12 эп, ~25 мин. серия
Режиссер: Кимура Синъитиро

Описание: Три сестры живут в странном доме, способном перемещаться в пространстве и времени. Они путешествуют в поисках человека, способного ответить на их вопросе об этом странном месте, и в этом им помогают таинственная горничная и способное превращаться в симпатичную девушку некое животное, видом напоминающее хомячка.

Доп. информация: Американское издание. Перевод с английского и озвучивание - "Гнус" по заказу компании Animegroup в 2005 году. На втором диске есть субтитры, поэтому иногда он прямо посреди реплики переключается со своего перевода на чтение русских субтитров. На дисках есть ансаб, дубляж, реклама и пара одноминутных спэшлов.

Качество: DVD5
Формат экрана: 16:9
Система / Разрешение: NTSC (720x480)
Средний битрейт: 4 446 Kbps
Аудио: AC-3, 192 Kbps, 2 channels Язык Английский
Аудио 2: AC-3, 192 Kbps, 2 channels Язык Японский
Аудио 3: AC-3, 192 Kbps, 2 channels Язык Русский
Язык субтитров: английский, русский (серии 5-8)
GeneralComplete name : D:\Films\Popotan\1\VIDEO_TS\VTS_02_3.VOBFormat : MPEG-PSFile size : 1 024 MiBDuration : 27mn 56sOverall bit rate mode : VariableOverall bit rate : 5 124 Kbps

VideoID : 224 (0xE0)Format : MPEG VideoFormat version : Version 2Format profile : Main@MainFormat settings, BVOP : YesFormat settings, Matrix : CustomFormat settings, GOP : M=3, N=15Format settings, picture st : FrameDuration : 27mn 55sBit rate mode : VariableBit rate : 4 446 KbpsMaximum bit rate : 7 200 KbpsWidth : 720 pixelsHeight : 480 pixelsDisplay aspect ratio : 16:9Frame rate : 29.970 fpsStandard : NTSCColor space : YUVChroma subsampling : 4:2:0Bit depth : 8 bitsScan type : InterlacedScan order : Top Field FirstCompression mode : LossyBits/(Pixel*Frame) : 0.429Time code of first frame : 01:55:43;10Time code source : Group of pictures headerGOP, Open/Closed : ClosedStream size : 888 MiB (87%)

Audio #1ID : 189 (0xBD)-128 (0x80)Format : AC-3Format/Info : Audio Coding 3Mode extension : CM (complete main)Format settings, Endianness : BigMuxing mode : DVD-VideoDuration : 27mn 56sBit rate mode : ConstantBit rate : 192 KbpsChannel(s) : 2 channelsChannel positions : Front: L RSampling rate : 48.0 KHzCompression mode : LossyDelay relative to video : -492msStream size : 38.4 MiB (4%)

Audio #2ID : 189 (0xBD)-129 (0x81)Format : AC-3Format/Info : Audio Coding 3Mode extension : CM (complete main)Format settings, Endianness : BigMuxing mode : DVD-VideoDuration : 27mn 56sBit rate mode : ConstantBit rate : 192 KbpsChannel(s) : 2 channelsChannel positions : Front: L RSampling rate : 48.0 KHzCompression mode : LossyDelay relative to video : -492msStream size : 38.4 MiB (4%)

Audio #3ID : 189 (0xBD)-130 (0x82)Format : AC-3Format/Info : Audio Coding 3Mode extension : CM (complete main)Format settings, Endianness : BigMuxing mode : DVD-VideoDuration : 27mn 56sBit rate mode : ConstantBit rate : 192 KbpsChannel(s) : 2 channelsChannel positions : Front: L RSampling rate : 48.0 KHzCompression mode : LossyDelay relative to video : -492msStream size : 38.4 MiB (4%)

Text #1ID : 189 (0xBD)-35 (0x23)Format : RLEFormat/Info : Run-length encodingMuxing mode : DVD-VideoDelay relative to video : 100ms

Text #2ID : 189 (0xBD)-36 (0x24)Format : RLEFormat/Info : Run-length encodingMuxing mode : DVD-VideoDelay relative to video : 100ms

Menu


Трекер:  [ 03-Мар-2016 20:00 ]

  

Скачать .torrent

Размер .torrent файла 35 KB


Размер: 12.42 GB
Хэш (hash) релиза: 7b99f7341e2d94c740c0fa7316e2d813cf6d4ad9
Подписка на обновления:

Еще никто не оставлял запись к записи скачать торрент Попотан Popotan . Будь первым!

!Обратная связь