Скачать через торрент Я люблю свою сестренку Boku wa Imouto ni Koi o Suru бесплатно Аниме Все серии на русском torrent

Если у вас наблюдаются проблемы со скриншотами, переходом по ссылками, скачиванием торрентов - проблемы в блокировщике рекламы AdBlock. #хорошегоДня!


Статистика раздачи
Размер:  2.32 GB   |    Зарегистрирован:  1 год 9 месяцев   |    .torrent скачан:  80 раз   |   
Раздают:  1  
   
Загрузка...
 
Автор Сообщение

Galfimbul

avatar Galfimbul


Я люблю свою сестренку / Boku wa Imouto ni Koi o Suru / I love my little sister

Страна: Япония
Год выпуска: 2005 г.
Жанр: драма, романтика, сёдзё
Тип: OVA
Продолжительность: 50 мин
Режиссер: Тэрамото Юкиё

Описание: Данный фильм полностью отражает буддийское представление о том, что «любящие сердца обязательно родятся рядом». Парадокс в том, что зачастую это «рядом» настолько близко, что всякая любовь запретна. Герои фильма — мальчик и девочка, Иори и Юки. Иори — стильный, но не очень прилежный молодой человек, одержимый странной даже для него страстью к Юки — его собственной сестре.

С ранних лет он видит в ней не сестренку, а «невесту», далее — женщину, которую он только и мог бы любить… Его чувства к ней весьма двойственны и нестабильны — он ее и ревнует, и боится обидеть, и обижает, прибывая в ослеплении своей страсти. Наконец, она начинает просто «выводить его из себя», что он «не может находится с ней в одной комнате», «не может себя сдержать».

Доп. информация: Перевод с английского и озвучивание - Дмитрий Толмачев по заказу компании Animegroup в 2005 году.

Качество: DVD5
Формат экрана: 4:3
Система / Разрешение: NTSC (720x480)
Средний битрейт: 5 228 Kbps
Аудио: AC-3, 448 Kbps, 2 channels Язык Японский (Matsuda Satoshi as Yori)
Аудио 2: AC-3, 160 Kbps, 2 channels Язык Русский
Аудио 3: AC-3, 160 Kbps, 2 channels Язык Японский (Morikubo Shotari as Yori)
Субтитры: Нет
GeneralComplete name : D:\Films\I LOVE MY YOUNG SISTER\I LOVE MY YOUNG SISTER\VIDEO_TS\VTS_02_1.VOBFormat : MPEG-PSFile size : 1 024 MiBDuration : 23mn 24sOverall bit rate mode : VariableOverall bit rate : 6 118 Kbps

VideoID : 224 (0xE0)Format : MPEG VideoFormat version : Version 2Format profile : Main@MainFormat settings, BVOP : YesFormat settings, Matrix : DefaultFormat settings, GOP : M=3, N=15Format settings, picture st : FrameDuration : 23mn 24sBit rate mode : VariableBit rate : 5 228 KbpsMaximum bit rate : 8 000 KbpsWidth : 720 pixelsHeight : 480 pixelsDisplay aspect ratio : 4:3Frame rate : 29.970 fpsStandard : NTSCColor space : YUVChroma subsampling : 4:2:0Bit depth : 8 bitsScan type : InterlacedScan order : Bottom Field FirstCompression mode : LossyBits/(Pixel*Frame) : 0.505Time code of first frame : 00:00:00:00Time code source : Group of pictures headerGOP, Open/Closed : OpenGOP, Open/Closed of first f : ClosedStream size : 875 MiB (85%)

Audio #1ID : 189 (0xBD)-128 (0x80)Format : AC-3Format/Info : Audio Coding 3Mode extension : CM (complete main)Format settings, Endianness : BigMuxing mode : DVD-VideoDuration : 23mn 23sBit rate mode : ConstantBit rate : 448 KbpsChannel(s) : 2 channelsChannel positions : Front: L RSampling rate : 48.0 KHzCompression mode : LossyStream size : 75.0 MiB (7%)

Audio #2ID : 189 (0xBD)-129 (0x81)Format : AC-3Format/Info : Audio Coding 3Mode extension : CM (complete main)Format settings, Endianness : BigMuxing mode : DVD-VideoDuration : 23mn 23sBit rate mode : ConstantBit rate : 160 KbpsChannel(s) : 2 channelsChannel positions : Front: L RSampling rate : 48.0 KHzCompression mode : LossyStream size : 26.8 MiB (3%)

Audio #3ID : 189 (0xBD)-130 (0x82)Format : AC-3Format/Info : Audio Coding 3Mode extension : CM (complete main)Format settings, Endianness : BigMuxing mode : DVD-VideoDuration : 23mn 23sBit rate mode : ConstantBit rate : 160 KbpsChannel(s) : 2 channelsChannel positions : Front: L RSampling rate : 48.0 KHzCompression mode : LossyStream size : 26.8 MiB (3%)

Menu


Трекер:  [ 05-Мар-2016 00:00 ]

  

Скачать .torrent

Размер .torrent файла 13 KB


Размер: 2.32 GB
Хэш (hash) релиза: 9bcd252e7135fd4d87c9adb0fd23cddcb97f2e11
Подписка на обновления:

Еще никто не оставлял запись к записи скачать торрент Я люблю свою сестренку Boku wa Imouto ni Koi o Suru . Будь первым!

!Обратная связь