Скачать через торрент музыку Разбогатей или сдохни Get Rich Or Die Tryin бесплатно без регистрации torrent

Если у вас наблюдаются проблемы со скриншотами, переходом по ссылками, скачиванием торрентов - проблемы в блокировщике рекламы AdBlock. #хорошегоДня!


Статистика раздачи
Размер:  434 MB   |    Зарегистрирован:  1 год 9 месяцев   |    .torrent скачан:  17 раз   |   
Раздают:  1  
   
Загрузка...
 
Автор Сообщение

Galfimbul

avatar Galfimbul


Разбогатей или сдохни / Get Rich Or Die Tryin'

Название альбома: Music From And Inspired By Get Rich Or Die Tryin' The Motion Picture
Жанр: Soundtrack
Год выпуска диска: 2005
Год выпуска фильма: 2005
Страна-производитель диска: EU
Издатель (лейбл): G Unit/Interscore
Номер по каталогу: 060249866030
Аудиокодек: FLAC (*.flac)
Тип рипа: tracks+.cue
Битрейт аудио: lossless
Продолжительность: 01:05:13
Источник: собственный рип
Наличие сканов в содержимом раздачи: нет
Треклист:
01. Hustler Ambiton - 50 Cent
02. What If - 50 Cent
03. Things Change - Spider Loc (featuring 50 Cent/Lloyd Banks)
04. You Already Know - Lloyd Banks (featuring 50 Cent/Young Buck)
05. When Death Beocmes You - M.O.P./50 Cent
06. Have a Party - Mobb Deep (featuring 50 Cent/Nate Dogg)
07. We Both Think Alike - 50 Cent/Olivia
08. Don't Need No Help - Young Buck
09. Get Low - Lloyd Banks
10. Fake Love - Tony Yayo
11. Window Shopper - 50 Cent
12. Born Alone, Die Alone - Lloyd Banks
13. You a Shooter - Mobb Deep/50 Cent
14. I Don't Know Officer - 50 Cent (featuring Lloyd Banks/Prodigy/Spider Loc/Ma$e)
15. Talk About Me - 50 Cent
Additional bonus tracks
16. When It Rains It Pours - 50 Cent
17. Best Friend - 50 Cent
18. I'll Whip Ya Head Boy - 50 Cent/Young Buck
Exact Audio Copy V1.0 beta 3 from 29. August 2011

Отчёт EAC об извлечении, выполненном 6. марта 2016, 17:14

Various Artists / Get Rich Or Die Tryin' (Music From And Inspired By The Motion Picture)

Дисковод: _NEC DVD_RW ND-4550A Adapter: 0 ID: 0

Режим чтения : ДостоверностьИспользование точного потока : ДаОтключение кэша аудио : ДаИспользование указателей C2 : Нет

Коррекция смещения при чтении : 48Способность читать области Lead-in и Lead-out : НетЗаполнение пропущенных сэмплов тишиной : ДаУдаление блоков с тишиной в начале и конце : НетПри вычислениях CRC использовались нулевые сэмплы : ДаИнтерфейс : Встроенный Win32-интерфейс для Win NT/2000Обработка зазоров : Добавлено к предыдущему треку

Выходной формат : Пользовательский кодировщикВыбранный битрейт : 1024 kBit/sКачество : ВысокийДобавление ID3-тега : НетУтилита сжатия : C:\Program Files\Exact Audio Copy\Flac\flac.exeДополнительные параметры : -V -8 -T "Date=%year%" -T "Genre=%genre%" %source%

TOC извлечённого CD

Трек | Старт | Длительность | Начальный сектор | Конечный сектор --------------------------------------------------------------------- 1 | 0:00.00 | 3:57.46 | 0 | 17820 2 | 3:57.46 | 3:05.29 | 17821 | 31724 3 | 7:03.00 | 3:59.41 | 31725 | 49690 4 | 11:02.41 | 4:15.21 | 49691 | 68836 5 | 15:17.62 | 3:05.32 | 68837 | 82743 6 | 18:23.19 | 3:55.71 | 82744 | 100439 7 | 22:19.15 | 3:05.60 | 100440 | 114374 8 | 25:25.00 | 2:50.46 | 114375 | 127170 9 | 28:15.46 | 3:56.03 | 127171 | 144873 10 | 32:11.49 | 3:20.73 | 144874 | 159946 11 | 35:32.47 | 3:10.23 | 159947 | 174219 12 | 38:42.70 | 3:00.27 | 174220 | 187746 13 | 41:43.22 | 3:05.52 | 187747 | 201673 14 | 44:48.74 | 4:32.43 | 201674 | 222116 15 | 49:21.42 | 3:41.50 | 222117 | 238741 16 | 53:03.17 | 4:02.17 | 238742 | 256908 17 | 57:05.34 | 4:11.41 | 256909 | 275774 18 | 61:17.00 | 3:56.31 | 275775 | 293505

Трек 1

Имя файла D:\DOWNLOAD\01 Hustler's Ambition.wav

Длина предзазора 0:00:02.00

Пиковый уровень 91.2 % Скорость извлечения 4.2 X Качество трека 100.0 % CRC теста 2F7D0387 CRC копии 2F7D0387 Точное извлечение (достоверность 2) [A9A8F1CD] (AR v1) Копирование... OK

Трек 2

Имя файла D:\DOWNLOAD\02 What If.wav

Пиковый уровень 99.9 % Скорость извлечения 4.4 X Качество трека 100.0 % CRC теста 2506714A CRC копии 2506714A Точное извлечение (достоверность 2) [8D432A02] (AR v1) Копирование... OK

Трек 3

Имя файла D:\DOWNLOAD\03 Things Change (Feat. 50 Cent & Lloyd Banks).wav

Пиковый уровень 98.8 % Скорость извлечения 4.9 X Качество трека 100.0 % CRC теста 25A4AD4B CRC копии 25A4AD4B Точное извлечение (достоверность 2) [589978B2] (AR v1) Копирование... OK

Трек 4

Имя файла D:\DOWNLOAD\04 You Already Know (Feat. 50 Cent & Young Buck).wav

Пиковый уровень 92.1 % Скорость извлечения 4.7 X Качество трека 99.9 % CRC теста 7DF15FB5 CRC копии 7DF15FB5 Точное извлечение (достоверность 2) [1AA3387D] (AR v1) Копирование... OK

Трек 5

Имя файла D:\DOWNLOAD\05 When Death Becomes You (Feat. 50 Cent).wav

Пиковый уровень 99.9 % Скорость извлечения 5.4 X Качество трека 100.0 % CRC теста 24FCE98A CRC копии 24FCE98A Точное извлечение (достоверность 2) [B0A028F5] (AR v1) Копирование... OK

Трек 6

Имя файла D:\DOWNLOAD\06 Have A Party (Feat. 50 Cent & Nate Dogg).wav

Пиковый уровень 98.8 % Скорость извлечения 5.8 X Качество трека 100.0 % CRC теста 0D08BBA5 CRC копии 0D08BBA5 Точное извлечение (достоверность 2) [13DDF7E2] (AR v1) Копирование... OK

Трек 7

Имя файла D:\DOWNLOAD\07 We Both Think Alike (Feat. Olivia).wav

Пиковый уровень 100.0 % Скорость извлечения 5.8 X Качество трека 100.0 % CRC теста 5FECA2F0 CRC копии 5FECA2F0 Точное извлечение (достоверность 2) [4CA899C0] (AR v1) Копирование... OK

Трек 8

Имя файла D:\DOWNLOAD\08 Don't Need No Help.wav

Пиковый уровень 99.9 % Скорость извлечения 5.0 X Качество трека 99.9 % CRC теста D82D7858 CRC копии D82D7858 Точное извлечение (достоверность 2) [0F72E27B] (AR v1) Копирование... OK

Трек 9

Имя файла D:\DOWNLOAD\09 Get Low.wav

Пиковый уровень 99.9 % Скорость извлечения 5.7 X Качество трека 99.9 % CRC теста B919A0EC CRC копии B919A0EC Точное извлечение (достоверность 2) [F45185E5] (AR v1) Копирование... OK

Трек 10

Имя файла D:\DOWNLOAD\10 Fake Love.wav

Пиковый уровень 99.9 % Скорость извлечения 6.5 X Качество трека 100.0 % CRC теста 4614D240 CRC копии 4614D240 Точное извлечение (достоверность 2) [E177CAE9] (AR v1) Копирование... OK

Трек 11

Имя файла D:\DOWNLOAD\11 Window Shopper.wav

Пиковый уровень 98.9 % Скорость извлечения 6.6 X Качество трека 100.0 % CRC теста 924AB67F CRC копии 924AB67F Точное извлечение (достоверность 2) [7CB53FD9] (AR v1) Копирование... OK

Трек 12

Имя файла D:\DOWNLOAD\12 Born Alone, Die Alone.wav

Пиковый уровень 98.8 % Скорость извлечения 6.7 X Качество трека 100.0 % CRC теста 9F97A1E3 CRC копии 9F97A1E3 Точное извлечение (достоверность 2) [637DE361] (AR v1) Копирование... OK

Трек 13

Имя файла D:\DOWNLOAD\13 You A Shooter (Feat. 50 Cent).wav

Пиковый уровень 98.9 % Скорость извлечения 6.9 X Качество трека 100.0 % CRC теста 0D8DDE90 CRC копии 0D8DDE90 Точное извлечение (достоверность 2) [922AC789] (AR v1) Копирование... OK

Трек 14

Имя файла D:\DOWNLOAD\14 I Don't Know Officer (Feat. Lloyd Banks,Prodigy (Of Mobb Deep),Spider Loc & Mase).wav

Пиковый уровень 98.8 % Скорость извлечения 6.7 X Качество трека 99.9 % CRC теста 67F8DAB8 CRC копии 67F8DAB8 Точное извлечение (достоверность 2) [BDA38D66] (AR v1) Копирование... OK

Трек 15

Имя файла D:\DOWNLOAD\15 Talk About Me.wav

Пиковый уровень 99.0 % Скорость извлечения 7.5 X Качество трека 100.0 % CRC теста CE26A622 CRC копии CE26A622 Точное извлечение (достоверность 2) [1EB768CE] (AR v1) Копирование... OK

Трек 16

Имя файла D:\DOWNLOAD\16 When It Rains It Pours.wav

Пиковый уровень 98.8 % Скорость извлечения 7.7 X Качество трека 100.0 % CRC теста 4F16C187 CRC копии 4F16C187 Точность не определена (достоверность 33) [A9BD286F], AccurateRip вернул [69F66A0F] (AR v2) Копирование... OK

Трек 17

Имя файла D:\DOWNLOAD\17 Best Friend.wav

Пиковый уровень 98.8 % Скорость извлечения 8.0 X Качество трека 100.0 % CRC теста 0A69991C CRC копии 0A69991C Точное извлечение (достоверность 2) [D903DC5B] (AR v1) Копирование... OK

Трек 18

Имя файла D:\DOWNLOAD\18 I'll Whip Ya Head Boy (Feat. Young Buck).wav

Пиковый уровень 98.8 % Скорость извлечения 7.0 X Качество трека 99.9 % CRC теста F1731871 CRC копии F1731871 Точное извлечение (достоверность 2) [6A3DF006] (AR v1) Копирование... OK

17 трек(и) скопированы точно 1 трек(и) не удалось проверить на точность

Некоторые треки не прошли проверку на точность

Ошибок не произошло

Конец отчёта

==== Контрольная сумма отчёта 5674592A6D8CB71724F5BB617A9CE18C04F3AA57FA897431D2F392D924DD0E20 ====
REM GENRE SoundtrackREM DATE 2005REM DISCID 050F4912REM COMMENT "ExactAudioCopy v1.0b3"PERFORMER "Various Artists"TITLE "Get Rich Or Die Tryin' (Music From And Inspired By The Motion Picture)"FILE "01 Hustler's Ambition.wav" WAVE TRACK 01 AUDIO TITLE "Hustler's Ambition" PERFORMER "50 Cent" INDEX 01 00:00:00FILE "02 What If.wav" WAVE TRACK 02 AUDIO TITLE "What If" PERFORMER "50 Cent" INDEX 01 00:00:00FILE "03 Things Change (Feat. 50 Cent & Lloyd Banks).wav" WAVE TRACK 03 AUDIO TITLE "Things Change (Feat. 50 Cent & Lloyd Banks)" PERFORMER "Spider Loc" INDEX 01 00:00:00FILE "04 You Already Know (Feat. 50 Cent & Young Buck).wav" WAVE TRACK 04 AUDIO TITLE "You Already Know (Feat. 50 Cent & Young Buck)" PERFORMER "Lloyd Banks" INDEX 01 00:00:00FILE "05 When Death Becomes You (Feat. 50 Cent).wav" WAVE TRACK 05 AUDIO TITLE "When Death Becomes You (Feat. 50 Cent)" PERFORMER "M.O.P." INDEX 01 00:00:00FILE "06 Have A Party (Feat. 50 Cent & Nate Dogg).wav" WAVE TRACK 06 AUDIO TITLE "Have A Party (Feat. 50 Cent & Nate Dogg)" PERFORMER "Mobb Deep" INDEX 01 00:00:00FILE "07 We Both Think Alike (Feat. Olivia).wav" WAVE TRACK 07 AUDIO TITLE "We Both Think Alike (Feat. Olivia)" PERFORMER "50 Cent" INDEX 01 00:00:00FILE "08 Don't Need No Help.wav" WAVE TRACK 08 AUDIO TITLE "Don't Need No Help" PERFORMER "Young Buck" INDEX 01 00:00:00FILE "09 Get Low.wav" WAVE TRACK 09 AUDIO TITLE "Get Low" PERFORMER "Lloyd Banks" INDEX 01 00:00:00FILE "10 Fake Love.wav" WAVE TRACK 10 AUDIO TITLE "Fake Love" PERFORMER "Tony Yayo" INDEX 01 00:00:00FILE "11 Window Shopper.wav" WAVE TRACK 11 AUDIO TITLE "Window Shopper" PERFORMER "50 Cent" INDEX 01 00:00:00FILE "12 Born Alone, Die Alone.wav" WAVE TRACK 12 AUDIO TITLE "Born Alone, Die Alone" PERFORMER "Lloyd Banks" INDEX 01 00:00:00FILE "13 You A Shooter (Feat. 50 Cent).wav" WAVE TRACK 13 AUDIO TITLE "You A Shooter (Feat. 50 Cent)" PERFORMER "Mobb Deep" INDEX 01 00:00:00FILE "14 I Don't Know Officer (Feat. Lloyd Banks,Prodigy (Of Mobb Deep),Spider Loc & Mase).wav" WAVE TRACK 14 AUDIO TITLE "I Don't Know Officer (Feat. Lloyd Banks,Prodigy (Of Mobb Deep),Spider Loc & M..." PERFORMER "50 Cent" INDEX 01 00:00:00FILE "15 Talk About Me.wav" WAVE TRACK 15 AUDIO TITLE "Talk About Me" PERFORMER "50 Cent" INDEX 01 00:00:00FILE "16 When It Rains It Pours.wav" WAVE TRACK 16 AUDIO TITLE "When It Rains It Pours" PERFORMER "50 Cent" INDEX 01 00:00:00FILE "17 Best Friend.wav" WAVE TRACK 17 AUDIO TITLE "Best Friend" PERFORMER "50 Cent" INDEX 01 00:00:00FILE "18 I'll Whip Ya Head Boy (Feat. Young Buck).wav" WAVE TRACK 18 AUDIO TITLE "I'll Whip Ya Head Boy (Feat. Young Buck)" PERFORMER "50 Cent" INDEX 01 00:00:00


Трекер:  [ 06-Мар-2016 14:30 ]

  

Скачать .torrent

Размер .torrent файла 19 KB


Размер: 434 MB
Хэш (hash) релиза: 6729b1e6b51f7efa9e2816fd164f62d5be47569b

Торренты, похожие на Разбогатей или сдохни Get Rich Or Die Tryin скачать торрент

Форум Название Автор Размер S L Добавлен
Саундтреки к фильмам и мультфильмам (mp3) ·· (OST) 50 Cent - Get Rich Or Die Tryin' / Разбогатей или сдохни - 2005, MP3, tracks, 320 kbps Galfimbul 156598739149 MB 0 0 1292265671

21:41

13-Дек-10

Еще никто не оставлял запись к записи скачать торрент Разбогатей или сдохни Get Rich Or Die Tryin . Будь первым!

!Обратная связь