Скачать через торрент Вторжение Кальмарки Shinryaku! Ika Musume бесплатно Аниме Все серии на русском torrent

Если у вас наблюдаются проблемы со скриншотами, переходом по ссылками, скачиванием торрентов - проблемы в блокировщике рекламы AdBlock. #хорошегоДня!


Статистика раздачи
Размер:  1.17 GB   |    Зарегистрирован:  1 год 9 месяцев   |    .torrent скачан:  43 раза   |   
Раздают:  1  
   
Загрузка...
 
Автор Сообщение

Galfimbul

avatar Galfimbul



Вторжение Кальмарки / Shinryaku! Ika Musume / 侵略!イカ娘
Год выпуска: 2012 г.
Страна: Япония
Жанр: Комедия, Повседневность
Тип: OVA
Продолжительность: 03 эп. по 00:24:03
Режиссер: Мидзусима Цутому
Студия: Studio Barcelona
Перевод:
<ol class="post-ul">
Русские субтитры от Rena-chan & sibion
</ol>
<ol class="post-ul">
Русские субтитры от Bred & Esito & K. Osaka
</ol>
Описание:
Возмущенная наплевательским отношением людей к мировому океану, юная Ика Мусумэ, то есть Девочка-кальмар, поднимается из глубин и выходит на сушу, дабы завоевать и сурово покарать человечество. Для наступления нужна оперативная база, потому Ика, слегка замаскировавшись, решила начать с первого же подвернувшегося под щупальца пляжного кафе. Тут и возникли проблемы – местный менеджер Эйко Айдзава, девушка резкая и практичная, выслушав манифест гостьи, тут же приставила ее к работе официанткой, резонно заметив, что если Ика с 30 клиентами не справляется, как тогда собралась Землю завоевывать?

Так и осталась посланница глубин официанткой, а попытки побузить привели к открытию, что кого не стоит злить, так это Тидзуру, старшую сестру Айдзава, внешне очень похожую на Беллданди. Пришлось Ике, скрепя сердце, поселиться в новом пристанище вместе с Эйко, Тидзуру и их младшим братишкой Такэру, утешая себя тем, что «глубже изучает вероятного противника». Не знала, бедняжка, что сержант Кэроро давно доказал – подобное ведет лишь к моральному разоружению и падению боевого духа. Очень скоро в круг изучения кроме семьи хозяев попали их друзья, соседи, а потом и все пляжное население, которому очень понравились «спагетти с кальмарьими чернилами»!
Информационные ссылки: World Art || AniDB || <a href="http://myanimelist.net/anime/13267/Shinryaku_Ika_Mu...a%20Musume" class="postLink">MAL</a>
Качество: BDRip | Рип: [Ohys-Raws]
Тип релиза: Без хардсаба
Формат видео: MP4
Наличие линковки: Нет
Видео: AVC, 1280x720, ~2223 kbps, 23.976 fps [8 bit]
Аудио:
1. Japanese AAC, 48.0 KHz, ~203 kbps, 2 ch;
Субтитры:
<ol class="post-ul">
Russian: ASS, внешние;
</ol>
General Format : MPEG-4 Format profile : Base Media Codec ID : isom File size : 418 MiB Duration : 24mn 3s Overall bit rate mode : Variable Overall bit rate : 2 431 Kbps Encoded date : UTC 2015-05-14 09:07:00 Tagged date : UTC 2015-05-14 09:07:00 Video #1 ID : 1 Format : AVC Format/Info : Advanced Video Codec Format profile : Main@L4.1 Format settings, CABAC : Yes Format settings, ReFrames : 4 frames Codec ID : avc1 Codec ID/Info : Advanced Video Coding Duration : 24mn 3s Bit rate : 2 223 Kbps Maximum bit rate : 11.2 Mbps Width : 1 280 pixels Height : 720 pixels Display aspect ratio : 16:9 Frame rate mode : Constant Frame rate : 23.976 fps Color space : YUV Chroma subsampling : 4:2:0 Bit depth : 8 bits Scan type : Progressive Bits/(Pixel*Frame) : 0.101 Stream size : 383 MiB (91%) Writing library : x264 core 146 r2538 121396c Encoding settings : cabac=1 / ref=3 / deblock=1:0:0 / analyse=0x1:0x131 / me=umh / subme=9 / psy=1 / psy_rd=1.00:0.00 / mixed_ref=1 / me_range=32 / chroma_me=1 / trellis=1 / 8x8dct=0 / cqm=0 / deadzone=21,11 / fast_pskip=1 / chroma_qp_offset=-2 / threads=12 / lookahead_threads=1 / sliced_threads=0 / nr=0 / decimate=1 / interlaced=0 / bluray_compat=0 / constrained_intra=0 / bframes=3 / b_pyramid=2 / b_adapt=1 / b_bias=0 / direct=1 / weightb=1 / open_gop=0 / weightp=2 / keyint=240 / keyint_min=1 / scenecut=40 / intra_refresh=0 / rc_lookahead=40 / rc=crf / mbtree=1 / crf=17.0 / qcomp=0.60 / qpmin=0 / qpmax=69 / qpstep=4 / ip_ratio=1.40 / aq=1:1.00 Encoded date : UTC 2015-05-14 09:07:00 Tagged date : UTC 2015-05-14 09:07:12 Audio #2 ID : 2 Format : AAC Format/Info : Advanced Audio Codec Format profile : LC Codec ID : 40 Duration : 24mn 3s Bit rate mode : Variable Bit rate : 203 Kbps Maximum bit rate : 252 Kbps Channel(s) : 2 channels Channel positions : Front: L R Sampling rate : 48.0 KHz Compression mode : Lossy Stream size : 35.0 MiB (8%) Language : Japanese Encoded date : UTC 2015-05-13 22:33:21 Tagged date : UTC 2015-05-14 09:07:12

01. Ты не сломаешь это? / Wanna Squiddle with It?
02. А разве бассейн не надувной? / Is That an Inkflatable Pool?
03. Не поможете / Won`t You Help?


Трекер:  [ 10-Мар-2016 02:00 ]

  

Скачать .torrent

Размер .torrent файла 13 KB


Размер: 1.17 GB
Хэш (hash) релиза: 1d8eed3e9e6da98bbff3bec7a99ddf34eef7ebb1
Подписка на обновления:

Торренты, похожие на Вторжение Кальмарки Shinryaku! Ika Musume скачать торрент

Форум Название Автор Размер S L Добавлен
Аниме | Rips ·· Вторжение Кальмарки / Shinryaku! Ika Musume [OVA] [Без хардсаба] [2 из 2] [JAP+SUB] & [1 из 2] [RUS(ext)] [2012 г., комедия, повседневность, DVDRip] Polarnik 862970983823 MB 0 0 1378219475

17:44

3-Сен-13

Аниме | HD Rips ·· Вторжение Кальмарки 2 / Shinryaku!? Ika Musume [TV] [12 из 12] [без хардсаба] [RUS(ext), JAP+SUB] [2011 г., комедия, повседневность, BDRemux] [1080p] Galfimbul 9036612327784.16 GB 0 0 1468952913

21:28

19-Июл-16

Аниме | HD Rips ·· Вторжение кальмарки (ТВ-1) / Shinryaku! Ika Musume (Мидзусима Цутому) [TV+Special] [12+2 из 12+2] [без хардсаба] [RUS(ext), JAP+SUB] [2010 г., комедия, BDRemux] [1080p] Galfimbul 8514995673179.3 GB 0 0 1468771723

19:08

17-Июл-16

Аниме | HD Rips ·· Вторжение Кальмарки 2 / Shinryaku!? Ika Musume / Squid Girl 2 [TV] [12 из 12] [Без хардсаба] [RUS(ext), JAP+SUB] [2011 г., комедия, повседневность, BDRip] [720p] Galfimbul 65871199296.13 GB 0 0 1434461578

16:32

16-Июн-15

Аниме | Rips ·· Вторжение Кальмарки OVA / Shinryaku! Ika Musume OVA [OVA] [1 из 1] [Без хардсаба] [JAP, RUS(ext), SUB] [2012 г., комедия, повседневность, DVDRip] Galfimbul 629262350600 MB 0 0 1351182360

19:26

25-Окт-12

Аниме | Rips ·· Вторжение Кальмарки OVA / Shinryaku!! Ika Musume OVA [OVA] [1 из 1] [Без хардсаба] [JAP+SUB] [2012 г., комедия, повседневность, DVDRip] Galfimbul 201649970192 MB 0 0 1345879020

10:17

25-Авг-12

Аниме | HD Rips ·· Вторжение Кальмарки 2 / Shinryaku!? Ika Musume [TV2] [1-12 из 12] [RUS(int), JAP] [2011 г., комедия, повседневность, HDTVRip] [720p] Polarnik 43491810244.05 GB 0 0 1338012240

09:04

26-Май-12

Еще никто не оставлял запись к записи скачать торрент Вторжение Кальмарки Shinryaku! Ika Musume . Будь первым!

!Обратная связь