Скачать через торрент Щелкунчик Китаро - Фильм бесплатно Аниме Все серии на русском torrent

Если у вас наблюдаются проблемы со скриншотами, переходом по ссылками, скачиванием торрентов - проблемы в блокировщике рекламы AdBlock. #хорошегоДня!


Статистика раздачи
Размер:  2.21 GB   |    Зарегистрирован:  1 год 9 месяцев   |    .torrent скачан:  58 раз   |   
Раздают:  1  
   
Загрузка...
 
Автор Сообщение

Galfimbul

avatar Galfimbul


Щелкунчик Китаро - Фильм (1986, весна) / Gegege no Kitarou: Youkai Taisen Arasou

Страна: Япония
Год выпуска: 1986 г.
Жанр: приключения, комедия, сказка
Тип: Movie
Продолжительность: короткометражный фильм, 40 мин.
Режиссер: Касай Осаму

Описание: Movie based on the 1985 TV anime with an original plot.

Доп. информация: Японское издание. Перевод с японского и озвучивание - Юки Нацуи по заказу компании Animegroup в 2008 году.

Качество: DVD5
Формат экрана: 16:9
Система / Разрешение: NTSC (720x480)
Средний битрейт: 7 010 Kbps
Аудио: AC-3, 192 Kbps, 2 channels Язык Русский
Аудио 2: AC-3, 384 Kbps, 2 channels Язык Японский
Субтитры: Нет
GeneralComplete name : D:\Films\GEGEGE NO KITARO MOVIE2 1986\GEGEGE NO KITARO MOVIE2 1986\VIDEO_TS\VTS_01_1.VOBFormat : MPEG-PSFile size : 1 024 MiBDuration : 18mn 29sOverall bit rate mode : VariableOverall bit rate : 7 740 Kbps

VideoID : 224 (0xE0)Format : MPEG VideoFormat version : Version 2Format profile : Main@MainFormat settings, BVOP : YesFormat settings, Matrix : CustomFormat settings, GOP : VariableDuration : 18mn 29sBit rate mode : VariableBit rate : 7 010 KbpsMaximum bit rate : 9 800 KbpsWidth : 720 pixelsHeight : 480 pixelsDisplay aspect ratio : 16:9Frame rate : 23.976 fpsColor space : YUVChroma subsampling : 4:2:0Bit depth : 8 bitsScan type : ProgressiveScan order : 2:3 PulldownCompression mode : LossyBits/(Pixel*Frame) : 0.846Time code of first frame : 01:24:32:06Time code source : Group of pictures headerGOP, Open/Closed : OpenGOP, Open/Closed of first f : ClosedStream size : 927 MiB (91%)

Audio #1ID : 189 (0xBD)-128 (0x80)Format : AC-3Format/Info : Audio Coding 3Mode extension : CM (complete main)Format settings, Endianness : BigMuxing mode : DVD-VideoDuration : 18mn 29sBit rate mode : ConstantBit rate : 192 KbpsChannel(s) : 2 channelsChannel positions : Front: L RSampling rate : 48.0 KHzCompression mode : LossyStream size : 25.4 MiB (2%)

Audio #2ID : 189 (0xBD)-129 (0x81)Format : AC-3Format/Info : Audio Coding 3Mode extension : CM (complete main)Format settings, Endianness : BigMuxing mode : DVD-VideoDuration : 18mn 29sBit rate mode : ConstantBit rate : 384 KbpsChannel(s) : 2 channelsChannel positions : Front: L RSampling rate : 48.0 KHzCompression mode : LossyStream size : 50.8 MiB (5%)

Menu


Трекер:  [ 11-Мар-2016 21:00 ]

  

Скачать .torrent

Размер .torrent файла 12 KB


Размер: 2.21 GB
Хэш (hash) релиза: 1d30e217120747456e4c39c689c23d20aa3c484f
Подписка на обновления:

Еще никто не оставлял запись к записи скачать торрент Щелкунчик Китаро - Фильм . Будь первым!

!Обратная связь