Скачать через торрент музыку Солдат Джейн G.I. Jane бесплатно без регистрации torrent

Если у вас наблюдаются проблемы со скриншотами, переходом по ссылками, скачиванием торрентов - проблемы в блокировщике рекламы AdBlock. #хорошегоДня!


Статистика раздачи
Размер:  271 MB   |    Зарегистрирован:  1 год 9 месяцев   |    .torrent скачан:  16 раз   |   
Раздают:  1  
   
Загрузка...
 
Автор Сообщение

Galfimbul

avatar Galfimbul


Trevor Jones & Various Artists - G.I. Jane (Солдат Джейн)

Жанр: Soundtrack
Композитор: Trevor Jones & VA (комп. Тревор Джонс)
Год выпуска диска: 1997
Год выпуска фильма: 1997
Страна-производитель диска: U.S. (США)
Издатель: Hollywood Records
Аудиокодек: FLAC (*.flac) Тип рипа: tracks+.cue
Битрейт аудио: lossless
Продолжительность: H:47:27
Источник (релизёр): what.cd (pollux)
Сканы: Отсутствуют

Треклист:

01. The Pretenders - Goodbye
02. The Pretenders - The Homecoming
03. Three Dog Night - Mama Told Me (Not To Come)
04. Bad Company - Feel Like Makin' Love
05. John Lee Hooker - Dimples
06. Tarnation - Two Wrongs Don't Make Things Right
07. Auntie Christ - The Future Is A War
08. Trevor Jones - Conspiracy
09. Trevor Jones - Time To Reflect
10. Trevor Jones - Endurance
EAC extraction logfile from 3. October 2008, 0:08 for CDVarious / G.I. Jane

Used drive : TSSTcorpCD/DVDW TS-H552D Adapter: 0 ID: 0Read mode : Secure with NO C2, accurate stream, NO disable cacheRead offset correction : 6Overread into Lead-In and Lead-Out : No

Used output format : C:\Users\Pollux\Downloads\Syrup098b7\Syrup.exe (User Defined Encoder) 320 kBit/s Additional command line options : REACT %o %s %d "%a" "%g" "%t" "%n" "%x" "%y" "%m" "%e" "%f" "%b" %r

Other options : Fill up missing offset samples with silence : Yes Delete leading and trailing silent blocks : No Native Win32 interface for Win NT & 2000

Track 1 Filename I:\Eac\Various - G.I. Jane - 01 - Goodbye (The Pretenders).wav

Pre-gap length 0:00:02.00

Peak level 100.0 % Track quality 100.0 % Test CRC D6F5E8CD Copy CRC D6F5E8CD Copy OK

Track 2 Filename I:\Eac\Various - G.I. Jane - 02 - The Homecoming (The Pretenders).wav

Peak level 97.8 % Track quality 100.0 % Test CRC 96F60FB1 Copy CRC 96F60FB1 Copy OK

Track 3 Filename I:\Eac\Various - G.I. Jane - 03 - Mama Told Me (Not To Come) (Three Dog Night).wav

Peak level 99.8 % Track quality 100.0 % Test CRC 80697788 Copy CRC 80697788 Copy OK

Track 4 Filename I:\Eac\Various - G.I. Jane - 04 - Feel Like Makin' Love (Bad Company).wav

Peak level 96.5 % Track quality 100.0 % Test CRC 27BD31BC Copy CRC 27BD31BC Copy OK

Track 5 Filename I:\Eac\Various - G.I. Jane - 05 - Dimples (John Lee Hooker).wav

Peak level 87.4 % Track quality 100.0 % Test CRC 7BD4C04C Copy CRC 7BD4C04C Copy OK

Track 6 Filename I:\Eac\Various - G.I. Jane - 06 - Two Wrongs Won't Make Things Right (Tarnation).wav

Peak level 95.9 % Track quality 100.0 % Test CRC CF430546 Copy CRC CF430546 Copy OK

Track 7 Filename I:\Eac\Various - G.I. Jane - 07 - The Future Is War (Auntie Christ).wav

Peak level 100.0 % Track quality 100.0 % Test CRC D7D0006B Copy CRC D7D0006B Copy OK

Track 8 Filename I:\Eac\Various - G.I. Jane - 08 - Conspiracy (Trevor Jones (composer)).wav

Peak level 98.8 % Track quality 100.0 % Test CRC D71DCEF6 Copy CRC D71DCEF6 Copy OK

Track 9 Filename I:\Eac\Various - G.I. Jane - 09 - Time To Reflect (Trevor Jones (composer)).wav

Peak level 89.5 % Track quality 100.0 % Test CRC AE1234D2 Copy CRC AE1234D2 Copy OK

Track 10 Filename I:\Eac\Various - G.I. Jane - 10 - Endurance (Trevor Jones (composer)).wav

Peak level 98.8 % Track quality 100.0 % Test CRC E44041B4 Copy CRC E44041B4 Copy OK

No errors occured

End of status report
REM GENRE SoundtrackREM DATE 1997REM DISCID 6A0B1F0AREM COMMENT "ExactAudioCopy v0.95b4"PERFORMER "Various"TITLE "G.I. Jane"FILE "Various - G.I. Jane - 01 - Goodbye (The Pretenders).wav" WAVE TRACK 01 AUDIO TITLE "Goodbye" PERFORMER "The Pretenders" INDEX 01 00:00:00FILE "Various - G.I. Jane - 02 - The Homecoming (The Pretenders).wav" WAVE TRACK 02 AUDIO TITLE "The Homecoming" PERFORMER "The Pretenders" INDEX 01 00:00:00FILE "Various - G.I. Jane - 03 - Mama Told Me (Not To Come) (Three Dog Night).wav" WAVE TRACK 03 AUDIO TITLE "Mama Told Me (Not To Come)" PERFORMER "Three Dog Night" INDEX 01 00:00:00FILE "Various - G.I. Jane - 04 - Feel Like Makin' Love (Bad Company).wav" WAVE TRACK 04 AUDIO TITLE "Feel Like Makin' Love" PERFORMER "Bad Company" INDEX 01 00:00:00FILE "Various - G.I. Jane - 05 - Dimples (John Lee Hooker).wav" WAVE TRACK 05 AUDIO TITLE "Dimples" PERFORMER "John Lee Hooker" INDEX 01 00:00:00FILE "Various - G.I. Jane - 06 - Two Wrongs Won't Make Things Right (Tarnation).wav" WAVE TRACK 06 AUDIO TITLE "Two Wrongs Won't Make Things Right" PERFORMER "Tarnation" INDEX 01 00:00:00FILE "Various - G.I. Jane - 07 - The Future Is War (Auntie Christ).wav" WAVE TRACK 07 AUDIO TITLE "The Future Is War" PERFORMER "Auntie Christ" INDEX 01 00:00:00FILE "Various - G.I. Jane - 08 - Conspiracy (Trevor Jones (composer)).wav" WAVE TRACK 08 AUDIO TITLE "Conspiracy" PERFORMER "Trevor Jones (composer)" INDEX 01 00:00:00FILE "Various - G.I. Jane - 09 - Time To Reflect (Trevor Jones (composer)).wav" WAVE TRACK 09 AUDIO TITLE "Time To Reflect" PERFORMER "Trevor Jones (composer)" INDEX 01 00:00:00FILE "Various - G.I. Jane - 10 - Endurance (Trevor Jones (composer)).wav" WAVE TRACK 10 AUDIO TITLE "Endurance" PERFORMER "Trevor Jones (composer)" INDEX 01 00:00:00
-----------------------

DON'T MODIFY THIS FILE

-----------------------

PERFORMER: auCDtect Task Manager, ver. 1.6.0 RC1 build 1.6.0.1Copyright (c) 2008-2010 y-soft. All rights reservedhttp://y-soft.org

ANALYZER: auCDtect: CD records authenticity detector, version 0.8.2Copyright (c) 2004 Oleg Berngardt. All rights reserved.Copyright (c) 2004 Alexander Djourik. All rights reserved.

FILE: 09 - Time To Reflect [Trevor Jones (composer)].flac Size: 7419550 Hash: 6C79F1F10F6F4E12DD3D8B8A8FE247F1 Accuracy: -m0 Conclusion: CDDA 100% Signature: 2E2B3632C3C25525F21A2A43502725141523EF0EFILE: 02 - The Homecoming [The Pretenders].flac Size: 27954781 Hash: 1C6FA08411A7E0E80FDDDA3764DBF5E9 Accuracy: -m0 Conclusion: CDDA 100% Signature: 10A7083EBF0571C9BD28AC0BA90342AACDFAC2C8FILE: 03 - Mama Told Me (Not To Come) [Three Dog Night].flac Size: 21603518 Hash: 216D62B287609F1AF87829CE59B327D5 Accuracy: -m0 Conclusion: CDDA 99% Signature: 6831FF29E95E7E392C459385277B70E154424AEEFILE: 08 - Conspiracy [Trevor Jones (composer)].flac Size: 58208700 Hash: D75A134023B4A70B69AFC6607F1C8D95 Accuracy: -m0 Conclusion: CDDA 100% Signature: BE805648CF656848CAC6830B4B411D437B63F859FILE: 07 - The Future Is War [Auntie Christ].flac Size: 20872721 Hash: 184FE23017D15C463006AD3A5D0E6DAD Accuracy: -m0 Conclusion: CDDA 99% Signature: E88774DE7DC7060AC3C09E2946D77D32650DB62FFILE: 05 - Dimples [John Lee Hooker].flac Size: 10060721 Hash: A78D1B8E7284482427C8BEF2F259B3C2 Accuracy: -m0 Conclusion: CDDA 100% Signature: DDAFF685AFFED67940FF4E9CEC731AF0AAF49C8EFILE: 04 - Feel Like Makin' Love [Bad Company].flac Size: 36785766 Hash: EDC3936C4E367CEB1CC0507CAD6DE0B0 Accuracy: -m0 Conclusion: CDDA 100% Signature: 4F05C92CF95C1C3327FD72AAC3628AB35BE2F170FILE: 10 - Endurance [Trevor Jones (composer)].flac Size: 44344131 Hash: 36E56541FD5481F33E7D4B4FEE53E8DB Accuracy: -m0 Conclusion: CDDA 100% Signature: 20C5DCDDED9F00B7ADC7B0CD3EC1FC2589BE6B6EFILE: 06 - Two Wrongs Won't Make Things Right [Tarnation].flac Size: 26085031 Hash: 8A7DD934A7A1C844A6967E469E52BEC3 Accuracy: -m0 Conclusion: CDDA 99% Signature: 2D89453BCC2A75027FDF0FA905AF5080BCE50C06FILE: 01 - Goodbye [The Pretenders].flac Size: 29342729 Hash: F33C523140749E7CD02A1C8314752091 Accuracy: -m0 Conclusion: CDDA 100% Signature: 1DF94E92331FC358BED094C0CA45980F66FD33EF


Трекер:  [ 12-Мар-2016 17:30 ]

  

Скачать .torrent

Размер .torrent файла 12 KB


Размер: 271 MB
Хэш (hash) релиза: 028708f4434915f8f34f0e4a27338631bedc1dd9

Еще никто не оставлял запись к записи скачать торрент Солдат Джейн G.I. Jane . Будь первым!

!Обратная связь