Скачать через торрент Блеск стекла Crystal Blaze бесплатно Аниме Все серии на русском torrent

Если у вас наблюдаются проблемы со скриншотами, переходом по ссылками, скачиванием торрентов - проблемы в блокировщике рекламы AdBlock. #хорошегоДня!


Статистика раздачи
Размер:  12.26 GB   |    Зарегистрирован:  1 год 9 месяцев   |    .torrent скачан:  65 раз   |   
Раздают:  1  
   
Загрузка...
 
Автор Сообщение

Galfimbul

avatar Galfimbul


Блеск стекла / Crystal Blaze

Страна: Япония
Год выпуска: 2008 г.
Жанр: приключения, фантастика, детектив
Тип: TV
Продолжительность: 12 эп, ~ 25 мин.
Режиссер: Касэ Мицуко

Описание: В тихом и мутном «городе-свалке», сателлите мегаполиса, живут люди без прошлого: детектив, уехавший из столицы после неудачного расследования, полицейский чин, который плохо ладил с начальством, подростки, не умеющие общаться со сверстниками. Здесь им спокойней, здесь никто никого ни о чем не расспрашивает.

Однако «время без вопросов», кажется, подходит к концу. Всё чаще и чаще в городе происходят странные вещи: исчезают молодые женщины, чтобы вновь появиться лишь затем, что возгореться на глазах у потрясенных очевидцев, а затем превратиться в стеклянные статуи. Полиция скрывает улики, в Интернете вовсю обсуждают легенду о Хрустальной Деве. Досужие журналисты ищут какие-либо зацепки.

Тем временем частное детективное агентство S&A принимает заказ получить и вывезти некий груз. И этим грузом вдруг оказывается стеклянная девушка, оживающая на глазах и принимающаяся яростно обороняться...

© Анастасия Розанова, World Art

Доп. информация: Качество TV-Rip. Перевод с английского и озвучивание от "Девушки" из Project JD по заказу компании Animegroup в 2008 году.

Качество: DVD5
Формат экрана: 16:9
Система / Разрешение: NTSC (720x480)
Средний битрейт: 4 320 Kbps
Аудио: AC-3, 192 Kbps, 2 channels Язык Японский
Аудио 2: PCM, 1 536 Kbps, 2 channels Язык Русский
Язык субтитров: русский
GeneralComplete name : D:\Films\Crystal Blaze\1\VIDEO_TS\VTS_02_1.VOBFormat : MPEG-PSFile size : 1 024 MiBDuration : 23mn 11sOverall bit rate mode : VariableOverall bit rate : 6 171 Kbps

VideoID : 224 (0xE0)Format : MPEG VideoFormat version : Version 2Format profile : Main@MainFormat settings, BVOP : YesFormat settings, Matrix : DefaultFormat settings, GOP : M=3, N=15Format settings, picture st : FrameDuration : 23mn 11sBit rate mode : VariableBit rate : 4 320 KbpsMaximum bit rate : 8 000 KbpsWidth : 720 pixelsHeight : 480 pixelsDisplay aspect ratio : 16:9Frame rate : 29.970 fpsStandard : NTSCColor space : YUVChroma subsampling : 4:2:0Bit depth : 8 bitsScan type : InterlacedScan order : Bottom Field FirstCompression mode : LossyBits/(Pixel*Frame) : 0.417Time code of first frame : 00:00:00:00Time code source : Group of pictures headerGOP, Open/Closed : OpenGOP, Open/Closed of first f : ClosedStream size : 717 MiB (70%)

Audio #1ID : 189 (0xBD)-128 (0x80)Format : AC-3Format/Info : Audio Coding 3Mode extension : CM (complete main)Format settings, Endianness : BigMuxing mode : DVD-VideoDuration : 23mn 11sBit rate mode : ConstantBit rate : 192 KbpsChannel(s) : 2 channelsChannel positions : Front: L RSampling rate : 48.0 KHzCompression mode : LossyStream size : 31.9 MiB (3%)

Audio #2ID : 189 (0xBD)-161 (0xA1)Format : PCMFormat settings, Endianness : BigFormat settings, Sign : SignedMuxing mode : DVD-VideoDuration : 23mn 11sBit rate mode : ConstantBit rate : 1 536 KbpsChannel(s) : 2 channelsSampling rate : 48.0 KHzBit depth : 16 bitsStream size : 255 MiB (25%)

Text #1ID : 189 (0xBD)-33 (0x21)Format : RLEFormat/Info : Run-length encodingMuxing mode : DVD-Video

Text #2ID : 189 (0xBD)-34 (0x22)Format : RLEFormat/Info : Run-length encodingMuxing mode : DVD-Video

Menu
<a href="viewtopic.php?t=1815495" class="postLink">...1815495</a>
Там 1 DVD-5, у меня 3 DVD-5, альтернативная озвучка.


Трекер:  [ 15-Мар-2016 20:00 ]

  

Скачать .torrent

Размер .torrent файла 35 KB


Размер: 12.26 GB
Хэш (hash) релиза: 26725dd04b6943ddeaefa90faace244a288a22f4
Подписка на обновления:

Торренты, похожие на Блеск стекла Crystal Blaze скачать торрент

Форум Название Автор Размер S L Добавлен
Аниме | HD Rips ·· Блеск стекла / Crystal Blaze [TV] [1-12 из 12] [JAP+SUB] [2008 г.] [Приключения, фантастика, детектив] [HDTVrip 720p] [Субтитры] Владыка 31746715002.96 GB 0 0 1290022023

22:27

17-Ноя-10

Еще никто не оставлял запись к записи скачать торрент Блеск стекла Crystal Blaze . Будь первым!

!Обратная связь