Скачать через торрент музыку Викинги Vikings бесплатно без регистрации torrent

Если у вас наблюдаются проблемы со скриншотами, переходом по ссылками, скачиванием торрентов - проблемы в блокировщике рекламы AdBlock. #хорошегоДня!


Статистика раздачи
Размер:  1.1 GB   |    Зарегистрирован:  1 год 8 месяцев   |    .torrent скачан:  45 раз   |   
Раздают:  1  
   
Загрузка...
 
Автор Сообщение

Galfimbul

avatar Galfimbul


Викинги / Vikings

Жанр: Score Композитор: Trevor Morris
Год выпуска диска: 2013-2015 Страна-производитель диска: E.U.
Издатель (лейбл): Sony Classical Аудиокодек: FLAC (*.flac)
Тип рипа: image+.cue Битрейт аудио: lossless
Источник: собственные рипы Наличие сканов в содержимом раздачи: да
Номер по каталогу: 88883734572
Продолжительность: 78:03
Треклист:
01. If I Had A Heart (Fever Ray) 03:49
02. Battle Field 02:00
03. The Eye Of Odin 01:01
04. Of Fathers And Sons 0:45
05. Journey To Kattegat 01:32
06. Entry To Kattegat 2:11
07. The Sunstone 01:59
08. You Shall Not Enter Valhalla 01:28
09. Meeting Floki 02:22
10. Ragnar's Sail 01:28
11. Ragnar Recruits 01:51
12. Seduction 01:51
13. Vikings Set Sail 01:04
14. North Sea Storm 01:17
15. Madness Takes Hold 01:52
16. Vikings Reach Land 01:43
17. Vikings Attack Village 01:36
18. Floki's Fire 01:23
19. Vikings Sail Home 01:36
20. Vikings In Hexham 02:43
21. Mano E Mano 01:24
22. Battle On The Beach 03:31
23. Athelstan Asks For Freedom 01:59
24. Ragnar Challenges The Earl 01:33
25. Making A Deal 01:03
26. Earl Accepts The Challenge 02:50
27. Ragnar Fights The Earl 03:19
28. Sending The Earl To Valhalla 01:50
29. Ragnar Takes The Throne 01:17
30. The Angel Of Death 02:02
31. Lagertha Oversees Dispute 1:42
32. Vikings Attack 02:33
33. Rollo Is Baptised 02:14
34. Rollo Left Behind 02:43
35. Ragnar Meets The Naked Woman 02:23
36. The Ash Tree 01:13
37. Aslaug Is With Child 01:48
38. An Uncertain World 06:57
Exact Audio Copy V1.1 from 23. June 2015

EAC extraction logfile from 14. March 2016, 16:06

Various Artists / Vikings - Music From The TV Series

Used drive : HP DVD Writer 1170d Adapter: 1 ID: 1

Read mode : SecureUtilize accurate stream : YesDefeat audio cache : YesMake use of C2 pointers : No

Read offset correction : 6Overread into Lead-In and Lead-Out : NoFill up missing offset samples with silence : YesDelete leading and trailing silent blocks : NoNull samples used in CRC calculations : YesUsed interface : Native Win32 interface for Win NT & 2000

Used output format : User Defined EncoderSelected bitrate : 1024 kBit/sQuality : LowAdd ID3 tag : NoCommand line compressor : C:\Program Files (x86)\Exact Audio Copy\FLAC\FLAC.EXEAdditional command line options : -V -8 -T "Date=%year%" -T "Genre=%genre%" -T"COMMENT=Ripped by Ungern666" -8 -V %source%

TOC of the extracted CD

Track | Start | Length | Start sector | End sector --------------------------------------------------------- 1 | 0:00.00 | 3:49.31 | 0 | 17205 2 | 3:49.31 | 2:00.26 | 17206 | 26231 3 | 5:49.57 | 1:01.41 | 26232 | 30847 4 | 6:51.23 | 0:45.34 | 30848 | 34256 5 | 7:36.57 | 1:32.06 | 34257 | 41162 6 | 9:08.63 | 2:11.03 | 41163 | 50990 7 | 11:19.66 | 1:59.12 | 50991 | 59927 8 | 13:19.03 | 1:28.07 | 59928 | 66534 9 | 14:47.10 | 2:22.19 | 66535 | 77203 10 | 17:09.29 | 1:28.09 | 77204 | 83812 11 | 18:37.38 | 1:51.35 | 83813 | 92172 12 | 20:28.73 | 1:51.02 | 92173 | 100499 13 | 22:20.00 | 1:04.20 | 100500 | 105319 14 | 23:24.20 | 1:17.02 | 105320 | 111096 15 | 24:41.22 | 1:52.35 | 111097 | 119531 16 | 26:33.57 | 1:43.22 | 119532 | 127278 17 | 28:17.04 | 1:36.08 | 127279 | 134486 18 | 29:53.12 | 1:23.41 | 134487 | 140752 19 | 31:16.53 | 1:36.28 | 140753 | 147980 20 | 32:53.06 | 2:43.57 | 147981 | 160262 21 | 35:36.63 | 1:24.18 | 160263 | 166580 22 | 37:01.06 | 3:31.52 | 166581 | 182457 23 | 40:32.58 | 1:59.05 | 182458 | 191387 24 | 42:31.63 | 1:33.31 | 191388 | 198393 25 | 44:05.19 | 1:03.45 | 198394 | 203163 26 | 45:08.64 | 2:50.62 | 203164 | 215975 27 | 47:59.51 | 3:19.26 | 215976 | 230926 28 | 51:19.02 | 1:50.19 | 230927 | 239195 29 | 53:09.21 | 1:17.07 | 239196 | 244977 30 | 54:26.28 | 2:02.46 | 244978 | 254173 31 | 56:28.74 | 1:42.06 | 254174 | 261829 32 | 58:11.05 | 2:32.64 | 261830 | 273293 33 | 60:43.69 | 2:14.13 | 273294 | 283356 34 | 62:58.07 | 2:43.04 | 283357 | 295585 35 | 65:41.11 | 2:23.13 | 295586 | 306323 36 | 68:04.24 | 1:13.49 | 306324 | 311847 37 | 69:17.73 | 1:48.05 | 311848 | 319952 38 | 71:06.03 | 6:57.24 | 319953 | 351251

Range status and errors

Selected range

Filename C:\EAC\Ungern666\Various Artists - Vikings - Music From The TV Series.wav

Peak level 99.0 % Extraction speed 5.1 X Range quality 100.0 % Test CRC DAC80BB6 Copy CRC DAC80BB6 Copy OK

No errors occurred

AccurateRip summary

Track 1 accurately ripped (confidence 10) [ED43EF38] (AR v2)Track 2 accurately ripped (confidence 10) [830ED6FB] (AR v2)Track 3 accurately ripped (confidence 10) [B2E2F6D1] (AR v2)Track 4 accurately ripped (confidence 10) [3FF361EA] (AR v2)Track 5 accurately ripped (confidence 10) [4B189D68] (AR v2)Track 6 accurately ripped (confidence 10) [9C01039E] (AR v2)Track 7 accurately ripped (confidence 10) [12D46DA5] (AR v2)Track 8 accurately ripped (confidence 10) [8721A7A5] (AR v2)Track 9 accurately ripped (confidence 10) [4641173E] (AR v2)Track 10 accurately ripped (confidence 10) [1E91D906] (AR v2)Track 11 accurately ripped (confidence 10) [391369F1] (AR v2)Track 12 accurately ripped (confidence 10) [1DA2696F] (AR v2)Track 13 accurately ripped (confidence 10) [7571A005] (AR v2)Track 14 accurately ripped (confidence 10) [767C4D34] (AR v2)Track 15 accurately ripped (confidence 10) [EBA9FDEE] (AR v2)Track 16 accurately ripped (confidence 10) [00035984] (AR v2)Track 17 accurately ripped (confidence 10) [4434BB97] (AR v2)Track 18 accurately ripped (confidence 10) [0AE667AA] (AR v2)Track 19 accurately ripped (confidence 10) [B7EE22CB] (AR v2)Track 20 accurately ripped (confidence 10) [619A56EE] (AR v2)Track 21 accurately ripped (confidence 10) [2ABEF5BE] (AR v2)Track 22 accurately ripped (confidence 10) [0A8E307D] (AR v2)Track 23 accurately ripped (confidence 10) [5725FAF4] (AR v2)Track 24 accurately ripped (confidence 10) [FD78D8E6] (AR v2)Track 25 accurately ripped (confidence 10) [008B081C] (AR v2)Track 26 accurately ripped (confidence 10) [17E977AB] (AR v2)Track 27 accurately ripped (confidence 10) [5E40DF19] (AR v2)Track 28 accurately ripped (confidence 10) [D23184B6] (AR v2)Track 29 accurately ripped (confidence 10) [3DC1D81E] (AR v2)Track 30 accurately ripped (confidence 10) [CBD11B4B] (AR v2)Track 31 accurately ripped (confidence 10) [897A31D6] (AR v2)Track 32 accurately ripped (confidence 10) [1F8DA095] (AR v2)Track 33 accurately ripped (confidence 10) [58374164] (AR v2)Track 34 accurately ripped (confidence 10) [771F485A] (AR v2)Track 35 accurately ripped (confidence 10) [0BAD7274] (AR v2)Track 36 accurately ripped (confidence 10) [CB03A627] (AR v2)Track 37 accurately ripped (confidence 10) [C028C943] (AR v2)Track 38 accurately ripped (confidence 10) [387BFD26] (AR v2)

All tracks accurately ripped

End of status report

---- CUETools DB Plugin V2.1.6

[CTDB TOCID: S4EV5cPLWEMeeoVK57OS3aoiAIs-] foundSubmit result: S4EV5cPLWEMeeoVK57OS3aoiAIs- has been confirmedTrack | CTDB Status 1 | (28/29) Accurately ripped 2 | (28/29) Accurately ripped 3 | (28/29) Accurately ripped 4 | (28/29) Accurately ripped 5 | (28/29) Accurately ripped 6 | (28/29) Accurately ripped 7 | (28/29) Accurately ripped 8 | (28/29) Accurately ripped 9 | (28/29) Accurately ripped 10 | (28/29) Accurately ripped 11 | (28/29) Accurately ripped 12 | (28/29) Accurately ripped 13 | (28/29) Accurately ripped 14 | (28/29) Accurately ripped 15 | (28/29) Accurately ripped 16 | (28/29) Accurately ripped 17 | (28/29) Accurately ripped 18 | (28/29) Accurately ripped 19 | (28/29) Accurately ripped 20 | (28/29) Accurately ripped 21 | (28/29) Accurately ripped 22 | (28/29) Accurately ripped 23 | (28/29) Accurately ripped 24 | (28/29) Accurately ripped 25 | (28/29) Accurately ripped 26 | (28/29) Accurately ripped 27 | (27/29) Accurately ripped 28 | (27/29) Accurately ripped 29 | (28/29) Accurately ripped 30 | (28/29) Accurately ripped 31 | (28/29) Accurately ripped 32 | (28/29) Accurately ripped 33 | (28/29) Accurately ripped 34 | (28/29) Accurately ripped 35 | (28/29) Accurately ripped 36 | (28/29) Accurately ripped 37 | (28/29) Accurately ripped 38 | (28/29) Accurately ripped

==== Log checksum AB9B40A779EA6F5B6192B998367B18CF3875EFE99340235B355C16F797BFEACF ====
Номер по каталогу: 88843073612
Продолжительность: 78:07
Треклист:
01. War Is Coming 03:22
02. Battle Of Brothers 06:21
03. Bjorn's Choice 01:58
04. Vikings Return Home 01:00
05. Rollo's Trial 03:33
06. Ragnar Says Goodbye To Gyda 02:30
07. Rollo Tries To Regain Ragnar's Trust 01:49
08. Vikings Attacked 03:57
09. Jarl Borg Attacks Kattegat 03:08
10. Ragnar Reunites With Family 1:31
11. Ragnar, Bjorn Sneak Into Kattegat 05:16
12. Battle For Kattegat 06:08
13. Jarl Borg And Ragnar Make Peace 01:39
14. Aslaug In Pain 01:42
15. Ragnar Describes The Blood Eagle 01:22
16. Ragnar Meets Ingstad 02:10
17. Aslaug Gives Birth 02:15
18. Athelwulf Is Ambushed 01:42
19. Athelstan Translates Scrolls 02:06
20. Vikings Retreat 06:32
21. Vikings Mourn Their Dead 00:52
22. Porunn's Metaphorical Swim 01:23
23. Horik Propositions Floki 01:19
24. Horik Asks Floki To Kill 01:10
25. Horik Watches Game 01:36
26. Feeding Rollo Poison Mushrooms 01:42
27. Erlendur Shown Sword Of Kings 01:21
28. Horik's Forces Attack 03:37
29. Killing Horik - King Ragnar 04:54
Exact Audio Copy V1.1 from 23. June 2015

EAC extraction logfile from 15. March 2016, 12:50

Trevor Morris / Vikings - Music From Season Two

Used drive : HP DVD Writer 1170d Adapter: 1 ID: 1

Read mode : SecureUtilize accurate stream : YesDefeat audio cache : YesMake use of C2 pointers : No

Read offset correction : 6Overread into Lead-In and Lead-Out : NoFill up missing offset samples with silence : YesDelete leading and trailing silent blocks : NoNull samples used in CRC calculations : YesUsed interface : Native Win32 interface for Win NT & 2000

Used output format : User Defined EncoderSelected bitrate : 1024 kBit/sQuality : LowAdd ID3 tag : NoCommand line compressor : C:\Program Files (x86)\Exact Audio Copy\FLAC\FLAC.EXEAdditional command line options : -V -8 -T "Date=%year%" -T "Genre=%genre%" -T"COMMENT=Ripped by Ungern666" -8 -V %source%

TOC of the extracted CD

Track | Start | Length | Start sector | End sector --------------------------------------------------------- 1 | 0:00.00 | 3:22.29 | 0 | 15178 2 | 3:22.29 | 6:21.72 | 15179 | 43825 3 | 9:44.26 | 1:58.51 | 43826 | 52726 4 | 11:43.02 | 1:00.26 | 52727 | 57252 5 | 12:43.28 | 3:33.00 | 57253 | 73227 6 | 16:16.28 | 2:30.64 | 73228 | 84541 7 | 18:47.17 | 1:49.54 | 84542 | 92770 8 | 20:36.71 | 3:57.68 | 92771 | 110613 9 | 24:34.64 | 3:08.02 | 110614 | 124715 10 | 27:42.66 | 1:31.04 | 124716 | 131544 11 | 29:13.70 | 5:16.21 | 131545 | 155265 12 | 34:30.16 | 6:08.32 | 155266 | 182897 13 | 40:38.48 | 1:39.03 | 182898 | 190325 14 | 42:17.51 | 1:42.47 | 190326 | 198022 15 | 44:00.23 | 1:22.10 | 198023 | 204182 16 | 45:22.33 | 2:10.34 | 204183 | 213966 17 | 47:32.67 | 2:15.72 | 213967 | 224163 18 | 49:48.64 | 1:42.38 | 224164 | 231851 19 | 51:31.27 | 2:06.64 | 231852 | 241365 20 | 53:38.16 | 6:32.52 | 241366 | 270817 21 | 60:10.68 | 0:52.24 | 270818 | 274741 22 | 61:03.17 | 1:23.02 | 274742 | 280968 23 | 62:26.19 | 1:19.03 | 280969 | 286896 24 | 63:45.22 | 1:10.25 | 286897 | 292171 25 | 64:55.47 | 1:36.03 | 292172 | 299374 26 | 66:31.50 | 1:42.00 | 299375 | 307024 27 | 68:13.50 | 1:21.16 | 307025 | 313115 28 | 69:34.66 | 3:37.74 | 313116 | 329464 29 | 73:12.65 | 4:54.63 | 329465 | 351577

Range status and errors

Selected range

Filename C:\EAC\Ungern666\Trevor Morris - Vikings - Music From Season Two.wav

Peak level 99.8 % Extraction speed 6.7 X Range quality 100.0 % Test CRC 269A9A8B Copy CRC 269A9A8B Copy OK

No errors occurred

AccurateRip summary

Track 1 accurately ripped (confidence 6) [23BA6254] (AR v2)Track 2 accurately ripped (confidence 6) [D953106F] (AR v2)Track 3 accurately ripped (confidence 6) [BC6490A8] (AR v2)Track 4 accurately ripped (confidence 6) [FCC6E128] (AR v2)Track 5 accurately ripped (confidence 6) [C1AA4CC2] (AR v2)Track 6 accurately ripped (confidence 6) [9FEF96CA] (AR v2)Track 7 accurately ripped (confidence 6) [42A63E98] (AR v2)Track 8 accurately ripped (confidence 6) [35AFFAD5] (AR v2)Track 9 accurately ripped (confidence 6) [F6FFDB92] (AR v2)Track 10 accurately ripped (confidence 6) [9C810BBC] (AR v2)Track 11 accurately ripped (confidence 6) [9EA4B450] (AR v2)Track 12 accurately ripped (confidence 6) [165F902E] (AR v2)Track 13 accurately ripped (confidence 6) [C406C7C9] (AR v2)Track 14 accurately ripped (confidence 6) [C43540D0] (AR v2)Track 15 accurately ripped (confidence 6) [8A71D5A5] (AR v2)Track 16 accurately ripped (confidence 6) [297536F0] (AR v2)Track 17 accurately ripped (confidence 6) [6B796D37] (AR v2)Track 18 accurately ripped (confidence 6) [A6816D44] (AR v2)Track 19 accurately ripped (confidence 6) [612214DF] (AR v2)Track 20 accurately ripped (confidence 6) [54E463A3] (AR v2)Track 21 accurately ripped (confidence 6) [1BD35EAA] (AR v2)Track 22 accurately ripped (confidence 6) [7875086C] (AR v2)Track 23 accurately ripped (confidence 6) [9A39002F] (AR v2)Track 24 accurately ripped (confidence 6) [1286EF49] (AR v2)Track 25 accurately ripped (confidence 6) [B1D17F00] (AR v2)Track 26 accurately ripped (confidence 6) [E1668C97] (AR v2)Track 27 accurately ripped (confidence 6) [0B88779B] (AR v2)Track 28 accurately ripped (confidence 6) [23BB4EDF] (AR v2)Track 29 accurately ripped (confidence 6) [2F53364C] (AR v2)

All tracks accurately ripped

End of status report

---- CUETools DB Plugin V2.1.6

[CTDB TOCID: c7KCV30LBMCoXWO2tOhGZV4Dox8-] foundSubmit result: c7KCV30LBMCoXWO2tOhGZV4Dox8- has been confirmedTrack | CTDB Status 1 | (6/6) Accurately ripped 2 | (6/6) Accurately ripped 3 | (6/6) Accurately ripped 4 | (6/6) Accurately ripped 5 | (6/6) Accurately ripped 6 | (6/6) Accurately ripped 7 | (6/6) Accurately ripped 8 | (6/6) Accurately ripped 9 | (6/6) Accurately ripped 10 | (6/6) Accurately ripped 11 | (6/6) Accurately ripped 12 | (6/6) Accurately ripped 13 | (6/6) Accurately ripped 14 | (6/6) Accurately ripped 15 | (6/6) Accurately ripped 16 | (6/6) Accurately ripped 17 | (6/6) Accurately ripped 18 | (6/6) Accurately ripped 19 | (6/6) Accurately ripped 20 | (6/6) Accurately ripped 21 | (6/6) Accurately ripped 22 | (6/6) Accurately ripped 23 | (6/6) Accurately ripped 24 | (6/6) Accurately ripped 25 | (6/6) Accurately ripped 26 | (6/6) Accurately ripped 27 | (6/6) Accurately ripped 28 | (6/6) Accurately ripped 29 | (6/6) Accurately ripped

==== Log checksum 33632A1EB87571A591C735647DCED4EB7931C792569BB3B6A54F988D48746528 ====
Номер по каталогу: 88875104112
Продолжительность: 81:56
Треклист:
01. The Seer Gives Lagertha A Prophecy 01:50
02. The Vikings Sail For Wessex 01:38
03. Kwenthrith's Story 02:08
04. Vikings Battle Brihtwulf's Army 06:03
05. Torstein Loses An Arm 01:30
06. A Cloaked Figure Arrives In Kattegat 03:32
07. Battle For The Hill Of The Ash 04:21
08. Judith 02:03
09. Sacrifice For The Crops 01:48
10. Siggy Sacrifices Herself To Save Ragnar's Sons 04:37
11. Rollo Learns Of Siggy's Sacrifice 01:57
12. Bjorn Fights To Save Rollo 01:26
13. Helga Tells Floki Of Harbard 02:12
14. The Seer Laughs At Rollo's Misery 01:50
15. Aethelwulf Attacks 03:13
16. Ragnar Kills The Messenger 01:25
17. Athelstan Is Reborn 01:56
18. Floki Appears To Kill Athelstan 03:11
19. Ragnar Honors Athelstan's Death 00:58
20. Ecbert Sends Athelwulf On A Journey 01:36
21. Aethelwulf Meets With Kwenthrith 02:24
22. Floki's Siege Towers Revealed 01:29
23. Vikings Reach Paris 02:40
24. The Attack Begins 03:38
25. The Walls Are Breached - The French Lose Hope 01:36
26. Ragnar Knows Floki Killed Athelstan 01:06
27. Vikings Attempt To Rip Open Gates 02:58
28. Floki Melt Down 01:34
29. Floki Curses The Gods 01:25
30. Kalf And Lagertha Make A Pact 02:46
31. Lagertha's Stealth Assault On The Bridge 01:43
32. The French Counter Attack 01:34
33. Ragnar Hallucinates, Sees Gods 01:03
34. The Vikings Are Told Of Ragnar's Death 02:07
35. Vikings Attack Paris 02:38
36. Ragnar Sets Sail For Home 01:45
Exact Audio Copy V1.1 from 23. June 2015

EAC extraction logfile from 15. March 2016, 13:23

Trevor Morris / Vikings - Music From Season Three

Used drive : HP DVD Writer 1170d Adapter: 1 ID: 1

Read mode : SecureUtilize accurate stream : YesDefeat audio cache : YesMake use of C2 pointers : No

Read offset correction : 6Overread into Lead-In and Lead-Out : NoFill up missing offset samples with silence : YesDelete leading and trailing silent blocks : NoNull samples used in CRC calculations : YesUsed interface : Native Win32 interface for Win NT & 2000

Used output format : User Defined EncoderSelected bitrate : 1024 kBit/sQuality : LowAdd ID3 tag : NoCommand line compressor : C:\Program Files (x86)\Exact Audio Copy\FLAC\FLAC.EXEAdditional command line options : -V -8 -T "Date=%year%" -T "Genre=%genre%" -T"COMMENT=Ripped by Ungern666" -8 -V %source%

TOC of the extracted CD

Track | Start | Length | Start sector | End sector --------------------------------------------------------- 1 | 0:00.00 | 1:50.27 | 0 | 8276 2 | 1:50.27 | 1:38.30 | 8277 | 15656 3 | 3:28.57 | 2:08.43 | 15657 | 25299 4 | 5:37.25 | 6:03.35 | 25300 | 52559 5 | 11:40.60 | 1:30.07 | 52560 | 59316 6 | 13:10.67 | 3:32.41 | 59317 | 75257 7 | 16:43.33 | 4:21.08 | 75258 | 94840 8 | 21:04.41 | 2:03.05 | 94841 | 104070 9 | 23:07.46 | 1:48.58 | 104071 | 112228 10 | 24:56.29 | 4:37.19 | 112229 | 133022 11 | 29:33.48 | 1:57.54 | 133023 | 141851 12 | 31:31.27 | 1:26.33 | 141852 | 148334 13 | 32:57.60 | 2:12.40 | 148335 | 158274 14 | 35:10.25 | 1:50.42 | 158275 | 166566 15 | 37:00.67 | 3:13.37 | 166567 | 181078 16 | 40:14.29 | 1:25.12 | 181079 | 187465 17 | 41:39.41 | 1:56.65 | 187466 | 196230 18 | 43:36.31 | 3:11.05 | 196231 | 210560 19 | 46:47.36 | 0:58.07 | 210561 | 214917 20 | 47:45.43 | 1:36.22 | 214918 | 222139 21 | 49:21.65 | 2:24.25 | 222140 | 232964 22 | 51:46.15 | 1:29.38 | 232965 | 239677 23 | 53:15.53 | 2:40.62 | 239678 | 251739 24 | 55:56.40 | 3:38.22 | 251740 | 268111 25 | 59:34.62 | 1:36.19 | 268112 | 275330 26 | 61:11.06 | 1:06.69 | 275331 | 280349 27 | 62:18.00 | 2:58.01 | 280350 | 293700 28 | 65:16.01 | 1:34.69 | 293701 | 300819 29 | 66:50.70 | 1:25.57 | 300820 | 307251 30 | 68:16.52 | 2:46.12 | 307252 | 319713 31 | 71:02.64 | 1:43.70 | 319714 | 327508 32 | 72:46.59 | 1:34.50 | 327509 | 334608 33 | 74:21.34 | 1:03.29 | 334609 | 339362 34 | 75:24.63 | 2:07.01 | 339363 | 348888 35 | 77:31.64 | 2:38.50 | 348889 | 360788 36 | 80:10.39 | 1:45.50 | 360789 | 368713

Range status and errors

Selected range

Filename C:\EAC\Ungern666\Trevor Morris - Vikings - Music From Season Three.wav

Peak level 99.0 % Extraction speed 6.7 X Range quality 100.0 % Test CRC 2746FB89 Copy CRC 2746FB89 Copy OK

No errors occurred

AccurateRip summary

Track 1 accurately ripped (confidence 3) [BA9461F3] (AR v2)Track 2 accurately ripped (confidence 3) [D8D7B7ED] (AR v2)Track 3 accurately ripped (confidence 3) [E2FAB2B0] (AR v2)Track 4 accurately ripped (confidence 3) [98357FE5] (AR v2)Track 5 accurately ripped (confidence 3) [03AF628A] (AR v2)Track 6 accurately ripped (confidence 3) [D650489A] (AR v2)Track 7 accurately ripped (confidence 3) [8B4E5C34] (AR v2)Track 8 accurately ripped (confidence 3) [F874F3CE] (AR v2)Track 9 accurately ripped (confidence 3) [537F8156] (AR v2)Track 10 accurately ripped (confidence 3) [C22911A6] (AR v2)Track 11 accurately ripped (confidence 3) [2F3B4E16] (AR v2)Track 12 accurately ripped (confidence 3) [7B2B65EE] (AR v2)Track 13 accurately ripped (confidence 3) [CD8EBD3D] (AR v2)Track 14 accurately ripped (confidence 3) [6A4EE14F] (AR v2)Track 15 accurately ripped (confidence 3) [B2317ED0] (AR v2)Track 16 accurately ripped (confidence 3) [A14B08A2] (AR v2)Track 17 accurately ripped (confidence 3) [FA4B3E26] (AR v2)Track 18 accurately ripped (confidence 3) [417982EE] (AR v2)Track 19 accurately ripped (confidence 3) [AF5F83F6] (AR v2)Track 20 accurately ripped (confidence 3) [2B4E83E6] (AR v2)Track 21 accurately ripped (confidence 3) [75912160] (AR v2)Track 22 accurately ripped (confidence 3) [0C372474] (AR v2)Track 23 accurately ripped (confidence 3) [B0AF46BB] (AR v2)Track 24 accurately ripped (confidence 3) [BA378449] (AR v2)Track 25 accurately ripped (confidence 3) [E2E4D45F] (AR v2)Track 26 accurately ripped (confidence 3) [E441184C] (AR v2)Track 27 accurately ripped (confidence 3) [CFD8C464] (AR v2)Track 28 accurately ripped (confidence 3) [97B60908] (AR v2)Track 29 accurately ripped (confidence 3) [5322B8F2] (AR v2)Track 30 accurately ripped (confidence 3) [AD3984F3] (AR v2)Track 31 accurately ripped (confidence 3) [6733104B] (AR v2)Track 32 accurately ripped (confidence 3) [1751297F] (AR v2)Track 33 accurately ripped (confidence 3) [08D51C29] (AR v2)Track 34 accurately ripped (confidence 3) [B4CC59AF] (AR v2)Track 35 accurately ripped (confidence 3) [0F28293C] (AR v2)Track 36 accurately ripped (confidence 3) [4C39801B] (AR v2)

All tracks accurately ripped

End of status report

---- CUETools DB Plugin V2.1.6

[CTDB TOCID: Mtlv9qZ9yuAhBTNkBmPB90U49uA-] foundSubmit result: Mtlv9qZ9yuAhBTNkBmPB90U49uA- has been confirmedTrack | CTDB Status 1 | (7/7) Accurately ripped 2 | (7/7) Accurately ripped 3 | (7/7) Accurately ripped 4 | (7/7) Accurately ripped 5 | (7/7) Accurately ripped 6 | (7/7) Accurately ripped 7 | (7/7) Accurately ripped 8 | (7/7) Accurately ripped 9 | (7/7) Accurately ripped 10 | (7/7) Accurately ripped 11 | (7/7) Accurately ripped 12 | (7/7) Accurately ripped 13 | (7/7) Accurately ripped 14 | (7/7) Accurately ripped 15 | (7/7) Accurately ripped 16 | (7/7) Accurately ripped 17 | (7/7) Accurately ripped 18 | (7/7) Accurately ripped 19 | (7/7) Accurately ripped 20 | (7/7) Accurately ripped 21 | (7/7) Accurately ripped 22 | (7/7) Accurately ripped 23 | (7/7) Accurately ripped 24 | (7/7) Accurately ripped 25 | (7/7) Accurately ripped 26 | (7/7) Accurately ripped 27 | (7/7) Accurately ripped 28 | (7/7) Accurately ripped 29 | (7/7) Accurately ripped 30 | (7/7) Accurately ripped 31 | (7/7) Accurately ripped 32 | (7/7) Accurately ripped 33 | (7/7) Accurately ripped 34 | (7/7) Accurately ripped 35 | (6/7) Accurately ripped 36 | (5/7) Accurately ripped

==== Log checksum AA1B3E624B12D0345426EECD728C85BF8B0A7BA379A139862A1551A9FEF3657C ====
Материал предназначен для ознакомления!

Трекер:  [ 15-Мар-2016 23:00 ]

  

Скачать .torrent

Размер .torrent файла 15 KB


Размер: 1.1 GB
Хэш (hash) релиза: 895fec190907725bc85ed2f16f380b7f9174489e

Торренты, похожие на Викинги Vikings скачать торрент

Форум Название Автор Размер S L Добавлен
Саундтреки к фильмам и мультфильмам (mp3) ·· (Score) Викинги / Vikings (Trevor Morris) - 2013-2015, MP3, 320 kbps Galfimbul 577592554551 MB 0 0 1432238606

23:03

21-Май-15

Саундтреки к фильмам и мультфильмам (mp3) ·· (Score) Викинги / Vikings (by Trevor Morris) - 2013, MP3, 320 kbps Galfimbul 187613114179 MB 0 0 1380574188

23:49

30-Сен-13

Саундтреки к фильмам и мультфильмам (mp3) ·· (Score/MF) Астерикс и викинги / Astérix et les Vikings / Asterix and the Vikings — Alexandre Azaria (avec Celine Dion, Amel Bent & VA) — 2006, MP3 (tracks), 320 kbps Galfimbul 132593530126 MB 0 0 1496050198

12:29

29-Май-17

Саундтреки к фильмам и мультфильмам (lossless) ·· (Score) Астерикс и викинги / Astérix et les Vikings / Asterix and the Vikings — Alexandre Azaria (avec Celine Dion, Amel Bent & VA) — 2006, FLAC (tracks+.cue), lossless Galfimbul 366245657349 MB 0 0 1495435121

09:38

22-Май-17

Саундтреки к фильмам и мультфильмам (lossless) ·· (Score) Викинги 2 / Vikings II (Trevor Morris) - 2014, FLAC (image+.cue), lossless Galfimbul 406522988388 MB 0 0 1420138226

21:50

1-Янв-15

Саундтреки к фильмам и мультфильмам (mp3) ·· (Score) Викинги / Northmen - A Viking Saga (Marcus Trumpp) - 2014, MP3, 320 kbps Galfimbul 151171409144 MB 0 0 1417636997

23:03

3-Дек-14

Еще никто не оставлял запись к записи скачать торрент Викинги Vikings . Будь первым!

!Обратная связь