Скачать через торрент Беспокойные сердца Kimi ga Nozomu Eien бесплатно Аниме Все серии на русском torrent

Если у вас наблюдаются проблемы со скриншотами, переходом по ссылками, скачиванием торрентов - проблемы в блокировщике рекламы AdBlock. #хорошегоДня!


Статистика раздачи
Размер:  11.32 GB   |    Зарегистрирован:  1 год 8 месяцев   |    .torrent скачан:  49 раз   |   
Раздают:  1  
   
Загрузка...
 
Автор Сообщение

Galfimbul

avatar Galfimbul


Беспокойные сердца / Kimi ga Nozomu Eien / Kimi ga Nozomu Eien

Страна: Япония
Год выпуска: 2003 г.
Жанр: романтика, драма, повседневность
Тип: TV
Продолжительность: 14 эп, ~25 мин. серия
Режиссер: Ватанабэ Тэцуя

Описание: Такаюки Наруми - обычный старшеклассник. Он учится, думает об экзаменах, общается с одноклассниками. Компанию ему составляют приятель Синдзи Тайра и две девушки: задиристая Мицки Хаясе и скромная тихоня Харука Судзумия. Казалось бы, идеальное сочетание: после того, как Мицки по секрету сообщает Такаюки, что Харука влюблена в него, могли бы получиться две хорошие пары... Но нет - Синдзи остается только другом для девушек, и они потихоньку начинают делить Такаюки. Харука безоговорочно верит подруге, а Мицки не переходит границ... Но в конце концов попытки Такаюки угодить всем косвенно становятся причиной трагедии, после которой одним придется учится плыть против течения, а другим - просто учиться жить.

Доп. информация: Текст читает Евгения Лурье по заказу компании Сузаку в 2004 году.

Качество: DVD5
Формат экрана: 4:3
Система / Разрешение: NTSC (720x480)
Средний битрейт: 5 300 Kbps
Аудио: AC-3, 256 Kbps, 2 channels Язык Японский
Аудио 2: AC-3, 256 Kbps, 2 channels Язык Русский
Язык субтитров: русский, английский
GeneralComplete name : D:\Films\Kimi Ga Nozomu Eien\EIEN 01_04\VIDEO_TS\VTS_01_1.VOBFormat : MPEG-PSFile size : 1 024 MiBDuration : 24mn 5sOverall bit rate : 5 941 Kbps

VideoID : 224 (0xE0)Format : MPEG VideoFormat version : Version 2Format profile : Main@MainFormat settings, BVOP : YesFormat settings, Matrix : CustomFormat settings, GOP : M=3, N=15Format settings, picture st : FrameDuration : 24mn 5sBit rate : 5 300 KbpsWidth : 720 pixelsHeight : 480 pixelsDisplay aspect ratio : 4:3Frame rate : 29.970 fpsStandard : NTSCColor space : YUVChroma subsampling : 4:2:0Bit depth : 8 bitsScan type : InterlacedScan order : Top Field FirstCompression mode : LossyBits/(Pixel*Frame) : 0.512Time code of first frame : 00:00:00:00Time code source : Group of pictures headerGOP, Open/Closed : ClosedStream size : 915 MiB (89%)

Audio #1ID : 189 (0xBD)-128 (0x80)Format : AC-3Format/Info : Audio Coding 3Format profile : Dolby DigitalMode extension : CM (complete main)Format settings, Endianness : BigMuxing mode : DVD-VideoDuration : 24mn 5sBit rate mode : ConstantBit rate : 256 KbpsChannel(s) : 2 channelsChannel positions : Front: L RSampling rate : 48.0 KHzCompression mode : LossyStream size : 44.1 MiB (4%)

Audio #2ID : 189 (0xBD)-129 (0x81)Format : AC-3Format/Info : Audio Coding 3Mode extension : CM (complete main)Format settings, Endianness : BigMuxing mode : DVD-VideoDuration : 24mn 5sBit rate mode : ConstantBit rate : 256 KbpsChannel(s) : 2 channelsChannel positions : Front: L RSampling rate : 48.0 KHzCompression mode : LossyStream size : 44.1 MiB (4%)

Menu
<a href="viewtopic.php?t=2288687" class="postLink">...2288687</a> - там DVD-9, у меня DVD-5; альтернативная озвучка


Трекер:  [ 29-Мар-2016 20:00 ]

  

Скачать .torrent

Размер .torrent файла 31 KB


Размер: 11.32 GB
Хэш (hash) релиза: 1bbb0f3e79f32a5c226bcad23356c20823a13cb6
Подписка на обновления:

Торренты, похожие на Беспокойные сердца Kimi ga Nozomu Eien скачать торрент

Форум Название Автор Размер S L Добавлен
Аниме | HD Rips ·· Беспокойные Сердца: Новый Сезон (ОВА-1) / Kimi Ga Nozomu Eien: Next Season / Вечность, Которую Ты Желаешь [OVA] [4 из 4] [Без хардсаба] [RUS(ext), JAP, SUB] [2007, романтика, драма, BDRip] [1080p] Galfimbul 33946291163.16 GB 0 0 1479137414

18:30

14-Ноя-16

Аниме | HD Rips ·· Беспокойные Сердца: Фанаты Аканэ (ОВА-2) / Kimi Ga Nozomu Eien Gaiden: Akane Maniax / Вечность, Которую Ты Желаешь [OVA] [3 из 3] [Без хардсаба] [RUS(ext), JAP, SUB] [2004, драма, меха, BDRip] [1080p] Galfimbul 24926310042.32 GB 0 0 1479137406

18:30

14-Ноя-16

Аниме | DVD ·· Беспокойные сердца / Kimi ga Nozomu Eien [TV] [1-14 из 14][Rus,JAP+SUB][2003][романтика, драма, повседневность][DVD9][Профессиональная] Galfimbul 2302191411221.44 GB 0 0 1317467470

14:11

1-Окт-11

Аниме | Rips ·· Беспокойные сердца / Kimi Ga Nozomu Eien / Вечность, которую ты так желаешь [TB] [1-14 из 14] [Specials] [1-11 из 11] [RUS(int),JAP+SUB] [2003, романтика, драма, повседневность, DVDrip] [любительская+профессиональная] L 53549902424.99 GB 0 0 1309666681

07:18

3-Июл-11

Аниме | Rips ·· Беспокойные сердца / Вечность на твой выбор / Kimi Ga Nozomu Eien [TV][1-14 из 14][JAP+SUB][2003 г., романтика, драма, повседневность, DVDRip][Субтитры] Iworb 40777240653.8 GB 0 0 1292564378

08:39

17-Дек-10

Аниме | Rips ·· Беспокойные сердца / Kimi ga Nozomu Eien [TV][01-14 из 14][RUS,JAP+SUB][2003 г.][романтика, драма, повседневность][DVDRip][Дублированная] engineer 17793368991.66 GB 0 0 1290671289

10:48

25-Ноя-10

Аниме | HD Rips ·· Беспокойные Сердца (ТВ) / Kimi Ga Nozomu Eien / Вечность, Которую Ты Желаешь [TV+Special] [14+12 из 14+12] [JAP, SUB] & [14+11 из 14+12] [RUS(int)] [Без хардсаба] [2003, романтика, драма, BDRip] [1080p] Galfimbul 90705209828.45 GB 0 0 1484472762

12:32

15-Янв-17

Аниме | HD Rips ·· Беспокойные Сердца (ТВ) / Kimi Ga Nozomu Eien / Вечность, Которую Ты Желаешь [TV+Special] [14+12 из 14+12] [JAP, SUB] & [14+11 из 14+12] [RUS(int)] [Без хардсаба] [2003, романтика, драма, BDRip] [1080p] Galfimbul 90705356448.45 GB 0 0 1479137418

18:30

14-Ноя-16

Аниме | HD Rips ·· Беспокойные Сердца: Театр Аю и Маю (Веб) / Kimi Ga Nozomu Eien: Ayu Mayu Gekijou / Вечность, Которую Ты Желаешь [ONA] [4+3 из 4+3] [Без хардсаба] [JAP, SUB] [2006, комедия, пародия, BDRip] [1080p] Galfimbul 10567030661008 MB 0 0 1479137399

18:29

14-Ноя-16

Аниме | DVD ·· Беспокойные сердца OVA / Kimi ga Nozomu Eien: Next Season [OVA][1-4 из 4][RUS, JAP+SUB][2007 г., романтика, драма, 4xDVD5][Любительская] Galfimbul 85776597387.99 GB 2 0 1310318679

20:24

10-Июл-11

Еще никто не оставлял запись к записи скачать торрент Беспокойные сердца Kimi ga Nozomu Eien . Будь первым!

!Обратная связь