Скачать через торрент музыку Тор Thor бесплатно без регистрации torrent

Если у вас наблюдаются проблемы со скриншотами, переходом по ссылками, скачиванием торрентов - проблемы в блокировщике рекламы AdBlock. #хорошегоДня!


Статистика раздачи
Размер:  348 MB   |    Зарегистрирован:  6 лет 7 месяцев   |    .torrent скачан:  63 раза   |   
Раздают:  1  
   
Загрузка...
 
Автор Сообщение

L


Тор - Thor
Жанр: Score
Композитор: Patrick Doyle
Год выпуска диска: 2011
Издатель (лейбл): Buena Vista Records

Аудио кодек: FLAC (*.flac)
Тип рипа: tracks+.cue
Битрейт аудио: lossless
Продолжительность: 01:12:04

Источник: lztr (thedivine1)
Наличие сканов: да (Scorpion_Alex)

01. Chasing The Storm (3:11)
02. Prologue (3:09)
03. Sons Of Odin (1:49)
04. A New King (3:01)
05. Ride To Observatory (2:10)
06. To Jotunheim (2:20)
07. Laufey (3:41)
08. Frost Giant Battle (4:22)
09. Banishment (1:54)
10. Crisis In Asgard (2:19)
11. Odin Confesses (2:43)
12. Hammer Found (1:12)
13. Urgent Matter (2:21)
14. The Compound (7:40)
15. Loki's Lie (1:54)
16. My Bastard Son (2:39)
17. Science And Magic (2:54)
18. The Destroyer (2:57)
19. Forgive Me (2:40)
20. Thor Kills The Destroyer (1:54)
21. Brothers Fight (6:59)
22. Letting Go (3:17)
23. Can You See Jane? (2:23)
24. Earth To Asgard (2:33)
 
Exact Audio Copy V0.99 prebeta 5 from 4. May 2009

EAC extraction logfile from 6. May 2011, 22:50

Patrick Doyle / Thor

Used drive : SONY DVD RW DRU-700A Adapter: 0 ID: 1

Read mode : SecureUtilize accurate stream : YesDefeat audio cache : YesMake use of C2 pointers : No

Read offset correction : 12Overread into Lead-In and Lead-Out : NoFill up missing offset samples with silence : YesDelete leading and trailing silent blocks : NoNull samples used in CRC calculations : NoUsed interface : Native Win32 interface for Win NT & 2000Gap handling : Appended to previous track

Used output format : User Defined EncoderSelected bitrate : 320 kBit/sQuality : HighAdd ID3 tag : NoCommand line compressor : C:\Program Files (x86)\Exact Audio Copy\FLAC\FLAC.EXEAdditional command line options : -V -8 -T "artist=%a" -T "title=%t" -T "album=%g" -T "date=%y" -T "tracknumber=%n" -T "genre=%m" %s

TOC of the extracted CD

Track | Start | Length | Start sector | End sector --------------------------------------------------------- 1 | 0:00.00 | 3:11.09 | 0 | 14333 2 | 3:11.09 | 3:09.23 | 14334 | 28531 3 | 6:20.32 | 1:48.47 | 28532 | 36678 4 | 8:09.04 | 3:01.16 | 36679 | 50269 5 | 11:10.20 | 2:10.36 | 50270 | 60055 6 | 13:20.56 | 2:19.46 | 60056 | 70526 7 | 15:40.27 | 3:40.49 | 70527 | 87075 8 | 19:21.01 | 4:22.26 | 87076 | 106751 9 | 23:43.27 | 1:53.67 | 106752 | 115293 10 | 25:37.19 | 2:19.07 | 115294 | 125725 11 | 27:56.26 | 2:43.25 | 125726 | 137975 12 | 30:39.51 | 1:11.67 | 137976 | 143367 13 | 31:51.43 | 2:21.23 | 143368 | 153965 14 | 34:12.66 | 7:40.12 | 153966 | 188477 15 | 41:53.03 | 1:54.16 | 188478 | 197043 16 | 43:47.19 | 2:39.01 | 197044 | 208969 17 | 46:26.20 | 2:53.69 | 208970 | 222013 18 | 49:20.14 | 2:57.22 | 222014 | 235310 19 | 52:17.36 | 2:40.13 | 235311 | 247323 20 | 54:57.49 | 1:53.50 | 247324 | 255848 21 | 56:51.24 | 6:59.12 | 255849 | 287285 22 | 63:50.36 | 3:17.25 | 287286 | 302085 23 | 67:07.61 | 2:23.01 | 302086 | 312811 24 | 69:30.62 | 2:33.13 | 312812 | 324299

Track 1

Filename P:\Music\Thor\Thor (2011, FLAC) - Patrick Doyle\01 - Chasing The Storm.wav

Pre-gap length 0:00:02.00

Peak level 94.6 % Track quality 100.0 % Test CRC 1EA7E20C Copy CRC 1EA7E20C Track not present in AccurateRip database Copy OK

Track 2

Filename P:\Music\Thor\Thor (2011, FLAC) - Patrick Doyle\02 - Prologue.wav

Peak level 94.4 % Track quality 100.0 % Test CRC 747EF268 Copy CRC 747EF268 Track not present in AccurateRip database Copy OK

Track 3

Filename P:\Music\Thor\Thor (2011, FLAC) - Patrick Doyle\03 - Sons Of Odin.wav

Peak level 94.6 % Track quality 100.0 % Test CRC 3AA412B9 Copy CRC 3AA412B9 Track not present in AccurateRip database Copy OK

Track 4

Filename P:\Music\Thor\Thor (2011, FLAC) - Patrick Doyle\04 - A New King.wav

Peak level 72.8 % Track quality 100.0 % Test CRC B89F0E36 Copy CRC B89F0E36 Track not present in AccurateRip database Copy OK

Track 5

Filename P:\Music\Thor\Thor (2011, FLAC) - Patrick Doyle\05 - Ride To Observatory.wav

Peak level 94.7 % Track quality 99.9 % Test CRC B78C4A71 Copy CRC B78C4A71 Track not present in AccurateRip database Copy OK

Track 6

Filename P:\Music\Thor\Thor (2011, FLAC) - Patrick Doyle\06 - To Jotunheim.wav

Peak level 89.9 % Track quality 100.0 % Test CRC 60FD97AA Copy CRC 60FD97AA Track not present in AccurateRip database Copy OK

Track 7

Filename P:\Music\Thor\Thor (2011, FLAC) - Patrick Doyle\07 - Laufey.wav

Peak level 37.4 % Track quality 100.0 % Test CRC 0A2A4CC9 Copy CRC 0A2A4CC9 Track not present in AccurateRip database Copy OK

Track 8

Filename P:\Music\Thor\Thor (2011, FLAC) - Patrick Doyle\08 - Frost Giant Battle.wav

Peak level 94.7 % Track quality 99.9 % Test CRC 6E9E4BB8 Copy CRC 6E9E4BB8 Track not present in AccurateRip database Copy OK

Track 9

Filename P:\Music\Thor\Thor (2011, FLAC) - Patrick Doyle\09 - Banishment.wav

Peak level 94.7 % Track quality 99.9 % Test CRC DFED9C59 Copy CRC DFED9C59 Track not present in AccurateRip database Copy OK

Track 10

Filename P:\Music\Thor\Thor (2011, FLAC) - Patrick Doyle\10 - Crisis In Asgard.wav

Peak level 45.5 % Track quality 100.0 % Test CRC A72FC779 Copy CRC A72FC779 Track not present in AccurateRip database Copy OK

Track 11

Filename P:\Music\Thor\Thor (2011, FLAC) - Patrick Doyle\11 - Odin Confesses.wav

Peak level 84.5 % Track quality 100.0 % Test CRC 49E8DD97 Copy CRC 49E8DD97 Track not present in AccurateRip database Copy OK

Track 12

Filename P:\Music\Thor\Thor (2011, FLAC) - Patrick Doyle\12 - Hammer Found.wav

Peak level 30.7 % Track quality 100.0 % Test CRC B3FEDA57 Copy CRC B3FEDA57 Track not present in AccurateRip database Copy OK

Track 13

Filename P:\Music\Thor\Thor (2011, FLAC) - Patrick Doyle\13 - Urgent Matter.wav

Peak level 50.1 % Track quality 100.0 % Test CRC 016CF428 Copy CRC 016CF428 Track not present in AccurateRip database Copy OK

Track 14

Filename P:\Music\Thor\Thor (2011, FLAC) - Patrick Doyle\14 - The Compound.wav

Peak level 94.8 % Track quality 100.0 % Test CRC E4BE159B Copy CRC E4BE159B Track not present in AccurateRip database Copy OK

Track 15

Filename P:\Music\Thor\Thor (2011, FLAC) - Patrick Doyle\15 - Loki's Lie.wav

Peak level 56.2 % Track quality 99.9 % Test CRC 58D5585B Copy CRC 58D5585B Track not present in AccurateRip database Copy OK

Track 16

Filename P:\Music\Thor\Thor (2011, FLAC) - Patrick Doyle\16 - My Bastard Son.wav

Peak level 47.7 % Track quality 100.0 % Test CRC 8A227526 Copy CRC 8A227526 Track not present in AccurateRip database Copy OK

Track 17

Filename P:\Music\Thor\Thor (2011, FLAC) - Patrick Doyle\17 - Science And Magic.wav

Peak level 21.2 % Track quality 100.0 % Test CRC 1BD787AE Copy CRC 1BD787AE Track not present in AccurateRip database Copy OK

Track 18

Filename P:\Music\Thor\Thor (2011, FLAC) - Patrick Doyle\18 - The Destroyer.wav

Peak level 67.1 % Track quality 99.9 % Test CRC E1F518D2 Copy CRC E1F518D2 Track not present in AccurateRip database Copy OK

Track 19

Filename P:\Music\Thor\Thor (2011, FLAC) - Patrick Doyle\19 - Forgive Me.wav

Peak level 79.5 % Track quality 100.0 % Test CRC 3A375190 Copy CRC 3A375190 Track not present in AccurateRip database Copy OK

Track 20

Filename P:\Music\Thor\Thor (2011, FLAC) - Patrick Doyle\20 - Thor Kills The Destroyer.wav

Peak level 67.2 % Track quality 100.0 % Test CRC 9B6B52C7 Copy CRC 9B6B52C7 Track not present in AccurateRip database Copy OK

Track 21

Filename P:\Music\Thor\Thor (2011, FLAC) - Patrick Doyle\21 - Brothers Fight.wav

Peak level 94.7 % Track quality 100.0 % Test CRC 1DE72F9D Copy CRC 1DE72F9D Track not present in AccurateRip database Copy OK

Track 22

Filename P:\Music\Thor\Thor (2011, FLAC) - Patrick Doyle\22 - Letting Go.wav

Peak level 62.1 % Track quality 100.0 % Test CRC 6F18AEAD Copy CRC 6F18AEAD Track not present in AccurateRip database Copy OK

Track 23

Filename P:\Music\Thor\Thor (2011, FLAC) - Patrick Doyle\23 - Can You See Jane .wav

Peak level 74.9 % Track quality 100.0 % Test CRC C5504285 Copy CRC C5504285 Track not present in AccurateRip database Copy OK

Track 24

Filename P:\Music\Thor\Thor (2011, FLAC) - Patrick Doyle\24 - Earth To Asgard.wav

Peak level 94.6 % Track quality 100.0 % Test CRC DA7C31E9 Copy CRC DA7C31E9 Track not present in AccurateRip database Copy OK

None of the tracks are present in the AccurateRip database

No errors occurred

End of status report
 
REM GENRE SoundtrackREM DATE 2011REM DISCID 6410E418REM COMMENT "ExactAudioCopy v0.99pb5"CATALOG 2401021913537FILE "01 - Chasing The Storm.wav" WAVE TRACK 01 AUDIO ISRC 904261315715 INDEX 01 00:00:00FILE "02 - Prologue.wav" WAVE TRACK 02 AUDIO ISRC 904261315715 INDEX 01 00:00:00FILE "03 - Sons Of Odin.wav" WAVE TRACK 03 AUDIO ISRC 904261315715 INDEX 01 00:00:00FILE "04 - A New King.wav" WAVE TRACK 04 AUDIO ISRC 904261315715 INDEX 01 00:00:00FILE "05 - Ride To Observatory.wav" WAVE TRACK 05 AUDIO ISRC 904261315715 INDEX 01 00:00:00FILE "06 - To Jotunheim.wav" WAVE TRACK 06 AUDIO ISRC 904261315715 INDEX 01 00:00:00FILE "07 - Laufey.wav" WAVE TRACK 07 AUDIO ISRC 904261315715 INDEX 01 00:00:00FILE "08 - Frost Giant Battle.wav" WAVE TRACK 08 AUDIO ISRC 904261315715 INDEX 01 00:00:00FILE "09 - Banishment.wav" WAVE TRACK 09 AUDIO ISRC 904261315715 INDEX 01 00:00:00FILE "10 - Crisis In Asgard.wav" WAVE TRACK 10 AUDIO ISRC 904261315715 INDEX 01 00:00:00FILE "11 - Odin Confesses.wav" WAVE TRACK 11 AUDIO ISRC 904261315715 INDEX 01 00:00:00FILE "12 - Hammer Found.wav" WAVE TRACK 12 AUDIO ISRC 904261315715 INDEX 01 00:00:00FILE "13 - Urgent Matter.wav" WAVE TRACK 13 AUDIO ISRC 904261315715 INDEX 01 00:00:00FILE "14 - The Compound.wav" WAVE TRACK 14 AUDIO ISRC 904261315715 INDEX 01 00:00:00FILE "15 - Loki's Lie.wav" WAVE TRACK 15 AUDIO ISRC 904261315715 INDEX 01 00:00:00FILE "16 - My Bastard Son.wav" WAVE TRACK 16 AUDIO ISRC 904261315715 INDEX 01 00:00:00FILE "17 - Science And Magic.wav" WAVE TRACK 17 AUDIO ISRC 904261315715 INDEX 01 00:00:00FILE "18 - The Destroyer.wav" WAVE TRACK 18 AUDIO ISRC 904261315715 INDEX 01 00:00:00FILE "19 - Forgive Me.wav" WAVE TRACK 19 AUDIO ISRC 904261315715 INDEX 01 00:00:00FILE "20 - Thor Kills The Destroyer.wav" WAVE TRACK 20 AUDIO ISRC 904261315715 INDEX 01 00:00:00FILE "21 - Brothers Fight.wav" WAVE TRACK 21 AUDIO ISRC 904261315715 INDEX 01 00:00:00FILE "22 - Letting Go.wav" WAVE TRACK 22 AUDIO ISRC 904261315715 INDEX 01 00:00:00FILE "23 - Can You See Jane .wav" WAVE TRACK 23 AUDIO ISRC 904261315715 INDEX 01 00:00:00FILE "24 - Earth To Asgard.wav" WAVE TRACK 24 AUDIO ISRC 904261315715 INDEX 01 00:00:00
 
REM GENRE ScoreREM DATE 2011REM DISCID 6410E418REM COMMENT "ExactAudioCopy v0.99pb5"CATALOG 2401021913537PERFORMER "Patrick Doyle"TITLE "Thor"FILE "01 - Chasing The Storm.wav" WAVE TRACK 01 AUDIO TITLE "Chasing The Storm" PERFORMER "Patrick Doyle" ISRC 904261315715 INDEX 01 00:00:00FILE "02 - Prologue.wav" WAVE TRACK 02 AUDIO TITLE "Prologue" PERFORMER "Patrick Doyle" ISRC 904261315715 INDEX 01 00:00:00FILE "03 - Sons Of Odin.wav" WAVE TRACK 03 AUDIO TITLE "Sons Of Odin" PERFORMER "Patrick Doyle" ISRC 904261315715 INDEX 01 00:00:00FILE "04 - A New King.wav" WAVE TRACK 04 AUDIO TITLE "A New King" PERFORMER "Patrick Doyle" ISRC 904261315715 INDEX 01 00:00:00FILE "05 - Ride To Observatory.wav" WAVE TRACK 05 AUDIO TITLE "Ride To Observatory" PERFORMER "Patrick Doyle" ISRC 904261315715 INDEX 01 00:00:00FILE "06 - To Jotunheim.wav" WAVE TRACK 06 AUDIO TITLE "To Jotunheim" PERFORMER "Patrick Doyle" ISRC 904261315715 INDEX 01 00:00:00FILE "07 - Laufey.wav" WAVE TRACK 07 AUDIO TITLE "Laufey" PERFORMER "Patrick Doyle" ISRC 904261315715 INDEX 01 00:00:00FILE "08 - Frost Giant Battle.wav" WAVE TRACK 08 AUDIO TITLE "Frost Giant Battle" PERFORMER "Patrick Doyle" ISRC 904261315715 INDEX 01 00:00:00FILE "09 - Banishment.wav" WAVE TRACK 09 AUDIO TITLE "Banishment" PERFORMER "Patrick Doyle" ISRC 904261315715 INDEX 01 00:00:00FILE "10 - Crisis In Asgard.wav" WAVE TRACK 10 AUDIO TITLE "Crisis In Asgard" PERFORMER "Patrick Doyle" ISRC 904261315715 INDEX 01 00:00:00FILE "11 - Odin Confesses.wav" WAVE TRACK 11 AUDIO TITLE "Odin Confesses" PERFORMER "Patrick Doyle" ISRC 904261315715 INDEX 01 00:00:00FILE "12 - Hammer Found.wav" WAVE TRACK 12 AUDIO TITLE "Hammer Found" PERFORMER "Patrick Doyle" ISRC 904261315715 INDEX 01 00:00:00FILE "13 - Urgent Matter.wav" WAVE TRACK 13 AUDIO TITLE "Urgent Matter" PERFORMER "Patrick Doyle" ISRC 904261315715 INDEX 01 00:00:00FILE "14 - The Compound.wav" WAVE TRACK 14 AUDIO TITLE "The Compound" PERFORMER "Patrick Doyle" ISRC 904261315715 INDEX 01 00:00:00FILE "15 - Loki's Lie.wav" WAVE TRACK 15 AUDIO TITLE "Loki's Lie" PERFORMER "Patrick Doyle" ISRC 904261315715 INDEX 01 00:00:00FILE "16 - My Bastard Son.wav" WAVE TRACK 16 AUDIO TITLE "My Bastard Son" PERFORMER "Patrick Doyle" ISRC 904261315715 INDEX 01 00:00:00FILE "17 - Science And Magic.wav" WAVE TRACK 17 AUDIO TITLE "Science And Magic" PERFORMER "Patrick Doyle" ISRC 904261315715 INDEX 01 00:00:00FILE "18 - The Destroyer.wav" WAVE TRACK 18 AUDIO TITLE "The Destroyer" PERFORMER "Patrick Doyle" ISRC 904261315715 INDEX 01 00:00:00FILE "19 - Forgive Me.wav" WAVE TRACK 19 AUDIO TITLE "Forgive Me" PERFORMER "Patrick Doyle" ISRC 904261315715 INDEX 01 00:00:00FILE "20 - Thor Kills The Destroyer.wav" WAVE TRACK 20 AUDIO TITLE "Thor Kills The Destroyer" PERFORMER "Patrick Doyle" ISRC 904261315715 INDEX 01 00:00:00FILE "21 - Brothers Fight.wav" WAVE TRACK 21 AUDIO TITLE "Brothers Fight" PERFORMER "Patrick Doyle" ISRC 904261315715 INDEX 01 00:00:00FILE "22 - Letting Go.wav" WAVE TRACK 22 AUDIO TITLE "Letting Go" PERFORMER "Patrick Doyle" ISRC 904261315715 INDEX 01 00:00:00FILE "23 - Can You See Jane .wav" WAVE TRACK 23 AUDIO TITLE "Can You See Jane" PERFORMER "Patrick Doyle" ISRC 904261315715 INDEX 01 00:00:00FILE "24 - Earth To Asgard.wav" WAVE TRACK 24 AUDIO TITLE "Earth To Asgard" PERFORMER "Patrick Doyle" ISRC 904261315715 INDEX 01 00:00:00


Трекер:  [ 07-Май-2011 17:55 ]

  

Скачать .torrent

Размер .torrent файла 9 KB


Размер: 348 MB
Хэш (hash) релиза: fd2f0ab781beb72751af533e32ee294b5c7317fe

Торренты, похожие на Тор Thor скачать торрент

Форум Название Автор Размер S L Добавлен
Саундтреки к фильмам и мультфильмам (mp3) ·· (Score) Тор / Thor (Thor 2011 Recording Session) (Patrick Doyle) - 2011, MP3, 320 kbps Galfimbul 269138991257 MB 0 0 1470732726

11:52

9-Авг-16

Саундтреки к фильмам и мультфильмам (mp3) ·· (Score) Тор / Thor (Patrick Doyle) - 2011, MP3, 320 kbps Mos 174630700167 MB 0 0 1303873300

06:01

27-Апр-11

Саундтреки к фильмам и мультфильмам (mp3) ·· (Score) Тор 2: Царство тьмы / Thor: The Dark World (Thor: The Dark World Complete) (Brian Tyler) - 2013, MP3, 320 kbps Galfimbul 280097241267 MB 0 0 1471900160

00:09

23-Авг-16

Саундтреки к фильмам и мультфильмам (lossless) ·· (Score) [WEB] Тор: Рагнарёк / Thor: Ragnarok (by Mark Mothersbaugh) - 2017, FLAC (tracks), lossless Galfimbul 419778313400 MB 0 0 1508568088

09:41

21-Окт-17

Саундтреки к фильмам и мультфильмам (mp3) ·· (Score) Тор / Царство тьмы / Рагнарёк | Thor / The Dark World / Ragnarok (by Patrick Doyle, Brian Tyler, Mark Mothersbaugh) (3 Albums) - 2011-2017, MP3, 320 kbps Galfimbul 553334441528 MB 0 0 1508431209

19:40

19-Окт-17

Саундтреки к фильмам и мультфильмам (lossless) ·· (Score) Тор 2: Царство тьмы / Thor: The Dark World (by Brian Tyler) {WEB} - 2013, FLAC (tracks), lossless Galfimbul 441509222421 MB 0 0 1383813533

11:38

7-Ноя-13

Саундтреки к фильмам и мультфильмам (mp3) ·· (Score) Тор 2: Царство тьмы / Thor: The Dark World (Brian Tyler) - 2013, MP3, 320 kbps Galfimbul 212338642203 MB 0 0 1383058361

17:52

29-Окт-13

Еще никто не оставлял запись к записи скачать торрент Тор Thor . Будь первым!

!Обратная связь