Скачать через торрент музыку Терминатор: Генезис Terminator Genisys бесплатно без регистрации torrent

Если у вас наблюдаются проблемы со скриншотами, переходом по ссылками, скачиванием торрентов - проблемы в блокировщике рекламы AdBlock. #хорошегоДня!


Статистика раздачи
Размер:  346 MB   |    Зарегистрирован:  1 год 8 месяцев   |    .torrent скачан:  21 раз   |   
Раздают:  1  
   
Загрузка...
 
Автор Сообщение

Galfimbul

avatar Galfimbul


Терминатор: Генезис / Terminator Genysis
[Music from The Motion Picture]

Композитор: Lorne Balfe
Жанр: Score
Год выпуска диска: 2015
Страна-производитель диска: США
Издатель: Paramount Music

Аудиокодек: FLAC (*.flac)
Тип рипа: tracks+.cue

Продолжительность: 01:11:52

Источник: собственный рип
Наличие сканов в содержимом раздачи: нет
01. Lorne Balfe - Fate and Hope (00:03:57)
02. Lorne Balfe - Better Days (00:03:06)
03. Lorne Balfe - Work Camp (00:03:38)
04. Lorne Balfe - Bus Ride (00:02:04)
05. Lorne Balfe - Sarah & Kyle (00:04:36)
06. Lorne Balfe - Alley Confrontation (00:02:33)
07. Lorne Balfe - Sarah Kicks Ass (00:01:54)
08. Lorne Balfe - Cyberdyne (00:03:41)
09. Lorne Balfe - Still After Us (00:02:53)
10. Lorne Balfe - Come with Me (00:03:43)
11. Lorne Balfe - John Connor (00:02:56)
12. Lorne Balfe - It's Really Me (00:02:37)
13. Lorne Balfe - Alcove (00:02:18)
14. Lorne Balfe - I am More (00:02:40)
15. Lorne Balfe - If You Love Me You Die (00:05:52)
16. Lorne Balfe - Judgment Day (00:02:56)
17. Lorne Balfe - Family (00:03:14)
18. Lorne Balfe - Fight (00:03:02)
19. Lorne Balfe - Sacrifice (00:04:22)
20. Lorne Balfe - Guardianship (00:03:26)
21. Lorne Balfe - What If I Can't... (00:04:24)
22. Lorne Balfe - Terminated (00:02:00)
Exact Audio Copy V1.1 from 23. June 2015

EAC extraction logfile from 9. December 2015, 2:34

Lorne Balfe / Terminator Genisys [Music from The Motion Picture]

Used drive : ASUS BW-12D1S-U Adapter: 1 ID: 0

Read mode : SecureUtilize accurate stream : YesDefeat audio cache : YesMake use of C2 pointers : No

Read offset correction : 667Overread into Lead-In and Lead-Out : NoFill up missing offset samples with silence : YesDelete leading and trailing silent blocks : NoNull samples used in CRC calculations : YesUsed interface : Native Win32 interface for Win NT & 2000Gap handling : Appended to previous track

Used output format : User Defined EncoderSelected bitrate : 896 kBit/sQuality : HighAdd ID3 tag : YesCommand line compressor : C:\Program Files (x86)\Exact Audio Copy\Flac\flac.exeAdditional command line options : -T "TITLE=%title%" -T "ARTIST=%artist%" -T "ALBUM=%albumtitle%" -T "YEAR=%year%" -T "TRACK=%tracknr2%" -T "ALBUMARTIST=%albumartist%" -T "COMPOSER=%composer%" -T "GENRE=%genre%" -T "PUBLISHER=%comment%" -6 -V %source% -o %dest%

TOC of the extracted CD

Track | Start | Length | Start sector | End sector --------------------------------------------------------- 1 | 0:00.00 | 3:57.07 | 0 | 17781 2 | 3:57.07 | 3:05.56 | 17782 | 31712 3 | 7:02.63 | 3:37.62 | 31713 | 48049 4 | 10:40.50 | 2:03.70 | 48050 | 57344 5 | 12:44.45 | 4:36.20 | 57345 | 78064 6 | 17:20.65 | 2:33.15 | 78065 | 89554 7 | 19:54.05 | 1:53.60 | 89555 | 98089 8 | 21:47.65 | 3:40.74 | 98090 | 114663 9 | 25:28.64 | 2:52.41 | 114664 | 127604 10 | 28:21.30 | 3:42.53 | 127605 | 144307 11 | 32:04.08 | 2:55.74 | 144308 | 157506 12 | 35:00.07 | 2:36.61 | 157507 | 169267 13 | 37:36.68 | 2:17.42 | 169268 | 179584 14 | 39:54.35 | 2:40.26 | 179585 | 191610 15 | 42:34.61 | 5:52.08 | 191611 | 218018 16 | 48:26.69 | 2:56.10 | 218019 | 231228 17 | 51:23.04 | 3:14.01 | 231229 | 245779 18 | 54:37.05 | 3:01.69 | 245780 | 259423 19 | 57:38.74 | 4:21.55 | 259424 | 279053 20 | 62:00.54 | 3:26.14 | 279054 | 294517 21 | 65:26.68 | 4:23.43 | 294518 | 314285 22 | 69:50.36 | 2:00.05 | 314286 | 323290

Track 1

Filename D:\Music\Scores & Soundtracks\Official Film Scores & Soundtracks\Terminator, The\06. Terminator Genisys [Music from The Motion Picture]\01. Fate and Hope.wav

Pre-gap length 0:00:02.00

Peak level 94.2 % Extraction speed 4.8 X Track quality 100.0 % Test CRC FA7D52E2 Copy CRC FA7D52E2 Track not present in AccurateRip database Copy OK

Track 2

Filename D:\Music\Scores & Soundtracks\Official Film Scores & Soundtracks\Terminator, The\06. Terminator Genisys [Music from The Motion Picture]\02. Better Days.wav

Peak level 94.2 % Extraction speed 4.9 X Track quality 100.0 % Test CRC 602DFF04 Copy CRC 602DFF04 Track not present in AccurateRip database Copy OK

Track 3

Filename D:\Music\Scores & Soundtracks\Official Film Scores & Soundtracks\Terminator, The\06. Terminator Genisys [Music from The Motion Picture]\03. Work Camp.wav

Peak level 94.2 % Extraction speed 5.3 X Track quality 100.0 % Test CRC 28111133 Copy CRC 28111133 Track not present in AccurateRip database Copy OK

Track 4

Filename D:\Music\Scores & Soundtracks\Official Film Scores & Soundtracks\Terminator, The\06. Terminator Genisys [Music from The Motion Picture]\04. Bus Ride.wav

Peak level 94.2 % Extraction speed 5.0 X Track quality 100.0 % Test CRC CA4EDBD6 Copy CRC CA4EDBD6 Track not present in AccurateRip database Copy OK

Track 5

Filename D:\Music\Scores & Soundtracks\Official Film Scores & Soundtracks\Terminator, The\06. Terminator Genisys [Music from The Motion Picture]\05. Sarah & Kyle.wav

Peak level 94.2 % Extraction speed 6.0 X Track quality 100.0 % Test CRC 69FC4FD4 Copy CRC 69FC4FD4 Track not present in AccurateRip database Copy OK

Track 6

Filename D:\Music\Scores & Soundtracks\Official Film Scores & Soundtracks\Terminator, The\06. Terminator Genisys [Music from The Motion Picture]\06. Alley Confrontation.wav

Peak level 94.2 % Extraction speed 5.7 X Track quality 100.0 % Test CRC 322ADF0D Copy CRC 322ADF0D Track not present in AccurateRip database Copy OK

Track 7

Filename D:\Music\Scores & Soundtracks\Official Film Scores & Soundtracks\Terminator, The\06. Terminator Genisys [Music from The Motion Picture]\07. Sarah Kicks Ass.wav

Peak level 94.2 % Extraction speed 5.5 X Track quality 100.0 % Test CRC 5778EE81 Copy CRC 5778EE81 Track not present in AccurateRip database Copy OK

Track 8

Filename D:\Music\Scores & Soundtracks\Official Film Scores & Soundtracks\Terminator, The\06. Terminator Genisys [Music from The Motion Picture]\08. Cyberdyne.wav

Peak level 94.2 % Extraction speed 6.4 X Track quality 100.0 % Test CRC 9E9EA8D1 Copy CRC 9E9EA8D1 Track not present in AccurateRip database Copy OK

Track 9

Filename D:\Music\Scores & Soundtracks\Official Film Scores & Soundtracks\Terminator, The\06. Terminator Genisys [Music from The Motion Picture]\09. Still After Us.wav

Peak level 94.2 % Extraction speed 6.4 X Track quality 100.0 % Test CRC 96DEEE65 Copy CRC 96DEEE65 Track not present in AccurateRip database Copy OK

Track 10

Filename D:\Music\Scores & Soundtracks\Official Film Scores & Soundtracks\Terminator, The\06. Terminator Genisys [Music from The Motion Picture]\10. Come with Me.wav

Peak level 94.2 % Extraction speed 6.8 X Track quality 100.0 % Test CRC A6B77591 Copy CRC A6B77591 Track not present in AccurateRip database Copy OK

Track 11

Filename D:\Music\Scores & Soundtracks\Official Film Scores & Soundtracks\Terminator, The\06. Terminator Genisys [Music from The Motion Picture]\11. John Connor.wav

Peak level 94.2 % Extraction speed 6.7 X Track quality 100.0 % Test CRC A4ACFAE9 Copy CRC A4ACFAE9 Track not present in AccurateRip database Copy OK

Track 12

Filename D:\Music\Scores & Soundtracks\Official Film Scores & Soundtracks\Terminator, The\06. Terminator Genisys [Music from The Motion Picture]\12. It's Really Me.wav

Peak level 94.2 % Extraction speed 6.7 X Track quality 100.0 % Test CRC 031C702C Copy CRC 031C702C Track not present in AccurateRip database Copy OK

Track 13

Filename D:\Music\Scores & Soundtracks\Official Film Scores & Soundtracks\Terminator, The\06. Terminator Genisys [Music from The Motion Picture]\13. Alcove.wav

Peak level 68.4 % Extraction speed 6.5 X Track quality 100.0 % Test CRC 31C68D8B Copy CRC 31C68D8B Track not present in AccurateRip database Copy OK

Track 14

Filename D:\Music\Scores & Soundtracks\Official Film Scores & Soundtracks\Terminator, The\06. Terminator Genisys [Music from The Motion Picture]\14. I am More.wav

Peak level 94.2 % Extraction speed 5.6 X Track quality 99.9 % Test CRC EF97F5AA Copy CRC EF97F5AA Track not present in AccurateRip database Copy OK

Track 15

Filename D:\Music\Scores & Soundtracks\Official Film Scores & Soundtracks\Terminator, The\06. Terminator Genisys [Music from The Motion Picture]\15. If You Love Me You Die.wav

Peak level 94.2 % Extraction speed 7.7 X Track quality 100.0 % Test CRC 9BBF4318 Copy CRC 9BBF4318 Track not present in AccurateRip database Copy OK

Track 16

Filename D:\Music\Scores & Soundtracks\Official Film Scores & Soundtracks\Terminator, The\06. Terminator Genisys [Music from The Motion Picture]\16. Judgment Day.wav

Peak level 94.2 % Extraction speed 6.6 X Track quality 100.0 % Test CRC CF838E15 Copy CRC CF838E15 Track not present in AccurateRip database Copy OK

Track 17

Filename D:\Music\Scores & Soundtracks\Official Film Scores & Soundtracks\Terminator, The\06. Terminator Genisys [Music from The Motion Picture]\17. Family.wav

Peak level 94.2 % Extraction speed 6.2 X Track quality 100.0 % Test CRC EAB90CEC Copy CRC EAB90CEC Track not present in AccurateRip database Copy OK

Track 18

Filename D:\Music\Scores & Soundtracks\Official Film Scores & Soundtracks\Terminator, The\06. Terminator Genisys [Music from The Motion Picture]\18. Fight.wav

Peak level 94.2 % Extraction speed 5.1 X Track quality 99.9 % Test CRC 2EB0A58A Copy CRC 2EB0A58A Track not present in AccurateRip database Copy OK

Track 19

Filename D:\Music\Scores & Soundtracks\Official Film Scores & Soundtracks\Terminator, The\06. Terminator Genisys [Music from The Motion Picture]\19. Sacrifice.wav

Peak level 94.2 % Extraction speed 5.8 X Track quality 100.0 % Test CRC A2FE8BA4 Copy CRC A2FE8BA4 Track not present in AccurateRip database Copy OK

Track 20

Filename D:\Music\Scores & Soundtracks\Official Film Scores & Soundtracks\Terminator, The\06. Terminator Genisys [Music from The Motion Picture]\20. Guardianship.wav

Peak level 65.8 % Extraction speed 4.7 X Track quality 99.9 % Test CRC A1570F8E Copy CRC A1570F8E Track not present in AccurateRip database Copy OK

Track 21

Filename D:\Music\Scores & Soundtracks\Official Film Scores & Soundtracks\Terminator, The\06. Terminator Genisys [Music from The Motion Picture]\21. What If I Can't....wav

Peak level 94.2 % Extraction speed 4.8 X Track quality 99.9 % Test CRC 570085D0 Copy CRC 570085D0 Track not present in AccurateRip database Copy OK

Track 22

Filename D:\Music\Scores & Soundtracks\Official Film Scores & Soundtracks\Terminator, The\06. Terminator Genisys [Music from The Motion Picture]\22. Terminated.wav

Peak level 94.4 % Extraction speed 4.5 X Track quality 100.0 % Test CRC EAE74EE6 Copy CRC EAE74EE6 Track not present in AccurateRip database Copy OK

None of the tracks are present in the AccurateRip database

No errors occurred

End of status report

---- CUETools DB Plugin V2.1.6

[CTDB TOCID: 7fub57EnV7i0q1YAWtTah5izZeg-] foundSubmit result: 7fub57EnV7i0q1YAWtTah5izZeg- has been confirmedTrack | CTDB Status 1 | (2/2) Accurately ripped 2 | (2/2) Accurately ripped 3 | (2/2) Accurately ripped 4 | (2/2) Accurately ripped 5 | (2/2) Accurately ripped 6 | (2/2) Accurately ripped 7 | (2/2) Accurately ripped 8 | (2/2) Accurately ripped 9 | (2/2) Accurately ripped 10 | (2/2) Accurately ripped 11 | (2/2) Accurately ripped 12 | (2/2) Accurately ripped 13 | (2/2) Accurately ripped 14 | (2/2) Accurately ripped 15 | (2/2) Accurately ripped 16 | (2/2) Accurately ripped 17 | (2/2) Accurately ripped 18 | (2/2) Accurately ripped 19 | (2/2) Accurately ripped 20 | (2/2) Accurately ripped 21 | (2/2) Accurately ripped 22 | (2/2) Accurately ripped

==== Log checksum F080569F2873C979AD8754A7B9ED4A3BE041750311D5808CFCBF4CA373E73DC5 ====
REM GENRE ScoreREM DATE 2015REM DISCID 3A10D616REM COMMENT "ExactAudioCopy v1.1"PERFORMER "Lorne Balfe"TITLE "Terminator Genisys [Music from The Motion Picture]"FILE "01. Fate and Hope.wav" WAVE TRACK 01 AUDIO TITLE "Fate and Hope" PERFORMER "Lorne Balfe" INDEX 01 00:00:00FILE "02. Better Days.wav" WAVE TRACK 02 AUDIO TITLE "Better Days" PERFORMER "Lorne Balfe" INDEX 01 00:00:00FILE "03. Work Camp.wav" WAVE TRACK 03 AUDIO TITLE "Work Camp" PERFORMER "Lorne Balfe" INDEX 01 00:00:00FILE "04. Bus Ride.wav" WAVE TRACK 04 AUDIO TITLE "Bus Ride" PERFORMER "Lorne Balfe" INDEX 01 00:00:00FILE "05. Sarah & Kyle.wav" WAVE TRACK 05 AUDIO TITLE "Sarah & Kyle" PERFORMER "Lorne Balfe" INDEX 01 00:00:00FILE "06. Alley Confrontation.wav" WAVE TRACK 06 AUDIO TITLE "Alley Confrontation" PERFORMER "Lorne Balfe" INDEX 01 00:00:00FILE "07. Sarah Kicks Ass.wav" WAVE TRACK 07 AUDIO TITLE "Sarah Kicks Ass" PERFORMER "Lorne Balfe" INDEX 01 00:00:00FILE "08. Cyberdyne.wav" WAVE TRACK 08 AUDIO TITLE "Cyberdyne" PERFORMER "Lorne Balfe" INDEX 01 00:00:00FILE "09. Still After Us.wav" WAVE TRACK 09 AUDIO TITLE "Still After Us" PERFORMER "Lorne Balfe" INDEX 01 00:00:00FILE "10. Come with Me.wav" WAVE TRACK 10 AUDIO TITLE "Come with Me" PERFORMER "Lorne Balfe" INDEX 01 00:00:00FILE "11. John Connor.wav" WAVE TRACK 11 AUDIO TITLE "John Connor" PERFORMER "Lorne Balfe" INDEX 01 00:00:00FILE "12. It's Really Me.wav" WAVE TRACK 12 AUDIO TITLE "It's Really Me" PERFORMER "Lorne Balfe" INDEX 01 00:00:00FILE "13. Alcove.wav" WAVE TRACK 13 AUDIO TITLE "Alcove" PERFORMER "Lorne Balfe" INDEX 01 00:00:00FILE "14. I am More.wav" WAVE TRACK 14 AUDIO TITLE "I am More" PERFORMER "Lorne Balfe" INDEX 01 00:00:00FILE "15. If You Love Me You Die.wav" WAVE TRACK 15 AUDIO TITLE "If You Love Me You Die" PERFORMER "Lorne Balfe" INDEX 01 00:00:00FILE "16. Judgment Day.wav" WAVE TRACK 16 AUDIO TITLE "Judgment Day" PERFORMER "Lorne Balfe" INDEX 01 00:00:00FILE "17. Family.wav" WAVE TRACK 17 AUDIO TITLE "Family" PERFORMER "Lorne Balfe" INDEX 01 00:00:00FILE "18. Fight.wav" WAVE TRACK 18 AUDIO TITLE "Fight" PERFORMER "Lorne Balfe" INDEX 01 00:00:00FILE "19. Sacrifice.wav" WAVE TRACK 19 AUDIO TITLE "Sacrifice" PERFORMER "Lorne Balfe" INDEX 01 00:00:00FILE "20. Guardianship.wav" WAVE TRACK 20 AUDIO TITLE "Guardianship" PERFORMER "Lorne Balfe" INDEX 01 00:00:00FILE "21. What If I Can't....wav" WAVE TRACK 21 AUDIO TITLE "What If I Can't?" PERFORMER "Lorne Balfe" INDEX 01 00:00:00FILE "22. Terminated.wav" WAVE TRACK 22 AUDIO TITLE "Terminated" PERFORMER "Lorne Balfe" INDEX 01 00:00:00
Сканы будут добавлены позже


Трекер:  [ 07-Апр-2016 14:30 ]

  

Скачать .torrent

Размер .torrent файла 15 KB


Размер: 346 MB
Хэш (hash) релиза: 493186bb9538a8fa4137bd31bdb8ea623535c098

Еще никто не оставлял запись к записи скачать торрент Терминатор: Генезис Terminator Genisys . Будь первым!

!Обратная связь