Summer Wars torrent

, , - AdBlock. #!


41.76 GB   |    :  1 8    |    .torrent :  49    |   
1  
   
...
 

Galfimbul

avatar Galfimbul


/ Summer Wars

:
: 2009 .
: , ,
: Movie
: 114 .
:
:
: ǻ, , , , . , , 17- . , , . -, , - , , 90- .

, . , , . , , , , , , , , , !

Hollow, World Art

. : .
: Blu-ray
:
: M2TS
:
/ : <a href="profile.php?mode=viewprofile&u=35238799" class="postLink">Kuji Kita</a>
: AVC, 8 , 1920x1080, 30 300 kbps, 23.976 fps
: LPCM, 2 304 kbps, 48 kHz, 2 ch ( ) ; : , Reanimedia
2: DTS-HD MA, 3 816 kbps, 48 kHz, 5.1 ch (DTS Core, 1 509 kbps, 48 kHz, 5.1 ch) ( ) ; : , Reanimedia
3: LPCM, 2 304 kbps, 48 kHz, 2 ch
4: DTS-HD MA, 2 040 kbps, 48 kHz, 5.1 ch (DTS Core, 1 509 kbps, 48 kHz, 5.1 ch)
: pgs, (, ) ; :
Disc Title: Summer Wars (Blu-Ray)
Disc Size: 44844534240 bytes
Protection: AACS
BD-Java: No
BDInfo: 0.5.8

Notes:

BDINFO HOME:
Cinema Squid
http://www.cinemasquid.com/blu-ray/tools/bdinfo

INCLUDES FORUMS REPORT FOR:
AVS Forum Blu-ray Audio and Video Specifications Thread
http://www.avsforum.com/avs-vb/showthread.php?t=1155731

********************
PLAYLIST: 00000.MPLS
********************

Total Video
Title Codec Length Movie Size Disc Size Bitrate Bitrate Main Audio Track Secondary Audio Track
----- ------ ------- -------------- -------------- ------- ------- ------------------ ---------------------
00000.MPLS AVC 1:54:38 37152504768 44844534240 43,21 30,30 LPCM 2.0 2304Kbps (48kHz/24-bit) DTS-HD Master 5.1 3816Kbps (48kHz/24-bit)

DISC INFO:

Disc Title: Summer Wars (Blu-Ray)
Disc Size: 44844534240 bytes
Protection: AACS
BD-Java: No
BDInfo: 0.5.8

PLAYLIST REPORT:

Name: 00000.MPLS
Length: 1:54:38.580 (h:m:s.ms)
Size: 37152504768 bytes
Total Bitrate: 43,21 Mbps

VIDEO:

Codec Bitrate Description
----- ------- -----------
MPEG-4 AVC Video 30300 kbps 1080p / 23,976 fps / 16:9 / High Profile 4.1

AUDIO:

Codec Language Bitrate Description
----- -------- ------- -----------
LPCM Audio Russian 2304 kbps 2.0 / 48 kHz / 2304 kbps / 24-bit
DTS-HD Master Audio Russian 3816 kbps 5.1 / 48 kHz / 3816 kbps / 24-bit (DTS Core: 5.1 / 48 kHz / 1509 kbps / 24-bit)
LPCM Audio Japanese 2304 kbps 2.0 / 48 kHz / 2304 kbps / 24-bit
DTS-HD Master Audio Japanese 2040 kbps 5.1 / 48 kHz / 2040 kbps / 16-bit (DTS Core: 5.1 / 48 kHz / 1509 kbps / 16-bit)

SUBTITLES:

Codec Language Bitrate Description
----- -------- ------- -----------
Presentation Graphics Russian 0,530 kbps
Presentation Graphics Russian 32,180 kbps

FILES:

Name Time In Length Size Total Bitrate
---- ------- ------ ---- -------------
00000.M2TS 0:00:00.000 1:54:11.886 37141656960 43365
00012.M2TS 1:54:11.886 0:00:26.693 10847808 3246

CHAPTERS:

Number Time In Length Avg Video Rate Max 1-Sec Rate Max 1-Sec Time Max 5-Sec Rate Max 5-Sec Time Max 10Sec Rate Max 10Sec Time Avg Frame Size Max Frame Size Max Frame Time
------ ------- ------ -------------- -------------- -------------- -------------- -------------- -------------- -------------- -------------- -------------- --------------
1 0:00:00.000 0:05:28.536 27418 kbps 45256 kbps 00:00:18.518 36906 kbps 00:00:15.598 34440 kbps 00:02:36.990 142926 bytes 771501 bytes 00:01:55.448
2 0:05:28.536 0:09:16.180 30034 kbps 48173 kbps 00:06:43.319 35800 kbps 00:09:42.373 34505 kbps 00:10:01.017 156582 bytes 898634 bytes 00:08:01.189
3 0:14:44.717 0:04:54.544 31863 kbps 43397 kbps 00:17:06.567 36411 kbps 00:17:06.442 34136 kbps 00:19:24.204 166120 bytes 798930 bytes 00:17:08.360
4 0:19:39.261 0:04:54.794 32319 kbps 41818 kbps 00:20:27.351 36052 kbps 00:21:09.476 34457 kbps 00:20:48.538 168494 bytes 843885 bytes 00:23:30.534
5 0:24:34.055 0:04:08.665 32479 kbps 45592 kbps 00:25:25.232 35817 kbps 00:25:25.232 34299 kbps 00:26:33.800 169330 bytes 933361 bytes 00:24:49.279
6 0:28:42.721 0:09:22.270 32456 kbps 43947 kbps 00:35:36.926 37065 kbps 00:34:15.303 34524 kbps 00:34:10.339 169208 bytes 911010 bytes 00:38:03.864
7 0:38:04.991 0:09:30.236 31742 kbps 49062 kbps 00:38:06.367 37565 kbps 00:38:06.367 34707 kbps 00:38:06.367 165488 bytes 915933 bytes 00:41:01.375
8 0:47:35.227 0:09:17.890 32368 kbps 47825 kbps 00:50:57.345 36712 kbps 00:53:51.853 34209 kbps 00:50:31.737 168754 bytes 865968 bytes 00:49:40.268
9 0:56:53.118 0:07:05.133 31872 kbps 43061 kbps 00:57:05.839 36838 kbps 01:00:16.988 34164 kbps 00:59:24.143 166166 bytes 872195 bytes 00:57:15.140
10 1:03:58.251 0:10:56.697 32089 kbps 48851 kbps 01:13:39.748 36929 kbps 01:12:37.936 34521 kbps 01:06:54.343 167299 bytes 901710 bytes 01:09:22.992
11 1:14:54.948 0:09:57.555 31694 kbps 44586 kbps 01:24:08.543 36484 kbps 01:22:15.305 34823 kbps 01:21:03.525 165237 bytes 807131 bytes 01:15:13.884
12 1:24:52.504 0:09:03.376 32261 kbps 47016 kbps 01:27:31.746 37242 kbps 01:29:34.327 34767 kbps 01:29:08.885 168196 bytes 837322 bytes 01:31:50.379
13 1:33:55.880 0:06:10.328 32055 kbps 46174 kbps 01:37:31.136 37588 kbps 01:35:32.977 34433 kbps 01:35:32.977 167119 bytes 847078 bytes 01:35:32.518
14 1:40:06.208 0:08:52.365 31303 kbps 46582 kbps 01:48:52.817 36694 kbps 01:47:09.881 34694 kbps 01:45:31.199 163199 bytes 927276 bytes 01:43:32.873
15 1:48:58.573 0:05:13.313 5130 kbps 27842 kbps 01:54:05.463 12462 kbps 01:50:20.447 10926 kbps 01:50:16.026 26751 bytes 843661 bytes 01:54:08.132
16 1:54:11.886 0:00:26.693 3045 kbps 10403 kbps 01:54:28.152 5566 kbps 01:54:25.191 4187 kbps 01:54:20.186 15925 bytes 348045 bytes 01:54:22.647

STREAM DIAGNOSTICS:

File PID Type Codec Language Seconds Bitrate Bytes Packets
---- --- ---- ----- -------- -------------- -------------- ------------- -----
00000.M2TS 4113 (0x1011) 0x1B AVC 6851,803 30407 26042752672 141633988
00000.M2TS 4352 (0x1100) 0x80 LPCM rus (Russian) 6851,803 2310 1978824388 10963016
00000.M2TS 4353 (0x1101) 0x86 DTS-HD MA rus (Russian) 6851,803 3831 3281080328 18899339
00000.M2TS 4354 (0x1102) 0x80 LPCM jpn (Japanese) 6851,803 2310 1978824388 10963016
00000.M2TS 4355 (0x1103) 0x86 DTS-HD MA jpn (Japanese) 6851,803 2048 1754476356 10596770
00000.M2TS 4608 (0x1200) 0x90 PGS rus (Russian) 6851,803 1 455939 2626
00000.M2TS 4609 (0x1201) 0x90 PGS rus (Russian) 6851,803 32 27669187 157812
00012.M2TS 4113 (0x1011) 0x1B AVC 26,610 3064 10192868 55615

<---- END FORUMS PASTE ---->

QUICK SUMMARY:

Disc Title: Summer Wars (Blu-Ray)
Disc Size: 44844534240 bytes
Protection: AACS
BD-Java: No
Playlist: 00000.MPLS
Size: 37152504768 bytes
Length: 1:54:38.580
Total Bitrate: 43,21 Mbps
Video: MPEG-4 AVC Video / 30300 kbps / 1080p / 23,976 fps / 16:9 / High Profile 4.1
Audio: Russian / LPCM Audio / 2.0 / 48 kHz / 2304 kbps / 24-bit
Audio: Russian / DTS-HD Master Audio / 5.1 / 48 kHz / 3816 kbps / 24-bit (DTS Core: 5.1 / 48 kHz / 1509 kbps / 24-bit)
Audio: Japanese / LPCM Audio / 2.0 / 48 kHz / 2304 kbps / 24-bit
Audio: Japanese / DTS-HD Master Audio / 5.1 / 48 kHz / 2040 kbps / 16-bit (DTS Core: 5.1 / 48 kHz / 1509 kbps / 16-bit)
Subtitle: Russian / 0,530 kbps
Subtitle: Russian / 32,180 kbps

********************
PLAYLIST: 00002.MPLS
********************

<--- BEGIN FORUMS PASTE --->
Total Video
Title Codec Length Movie Size Disc Size Bitrate Bitrate Main Audio Track Secondary Audio Track
----- ------ ------- -------------- -------------- ------- ------- ------------------ ---------------------
00002.MPLS AVC 0:00:26 10847808 44844534240 3,25 3,05

DISC INFO:

Disc Title: Summer Wars (Blu-Ray)
Disc Size: 44844534240 bytes
Protection: AACS
BD-Java: No
BDInfo: 0.5.8

PLAYLIST REPORT:

Name: 00002.MPLS
Length: 0:00:26.693 (h:m:s.ms)
Size: 10847808 bytes
Total Bitrate: 3,25 Mbps

VIDEO:

Codec Bitrate Description
----- ------- -----------
MPEG-4 AVC Video 3050 kbps 1080p / 23,976 fps / 16:9 / High Profile 4.1

FILES:

Name Time In Length Size Total Bitrate
---- ------- ------ ---- -------------
00012.M2TS 0:00:00.000 0:00:26.693 10847808 3246

CHAPTERS:

Number Time In Length Avg Video Rate Max 1-Sec Rate Max 1-Sec Time Max 5-Sec Rate Max 5-Sec Time Max 10Sec Rate Max 10Sec Time Avg Frame Size Max Frame Size Max Frame Time
------ ------- ------ -------------- -------------- -------------- -------------- -------------- -------------- -------------- -------------- -------------- --------------
1 0:00:00.000 0:00:26.693 3054 kbps 10403 kbps 00:00:16.266 5566 kbps 00:00:13.304 4187 kbps 00:00:08.299 15949 bytes 348045 bytes 00:00:10.760

STREAM DIAGNOSTICS:

File PID Type Codec Language Seconds Bitrate Bytes Packets
---- --- ---- ----- -------- -------------- -------------- ------------- -----
00012.M2TS 4113 (0x1011) 0x1B AVC 26,610 3064 10192868 55615

<---- END FORUMS PASTE ---->

QUICK SUMMARY:

Disc Title: Summer Wars (Blu-Ray)
Disc Size: 44844534240 bytes
Protection: AACS
BD-Java: No
Playlist: 00002.MPLS
Size: 10847808 bytes
Length: 0:00:26.693
Total Bitrate: 3,25 Mbps
Video: MPEG-4 AVC Video / 3050 kbps / 1080p / 23,976 fps / 16:9 / High Profile 4.1

********************
PLAYLIST: 00004.MPLS
********************

<--- BEGIN FORUMS PASTE --->
Total Video
Title Codec Length Movie Size Disc Size Bitrate Bitrate Main Audio Track Secondary Audio Track
----- ------ ------- -------------- -------------- ------- ------- ------------------ ---------------------
00004.MPLS AVC 0:35:29 6020050944 44844534240 22,62 19,91 DD AC3 2.0 384Kbps

DISC INFO:

Disc Title: Summer Wars (Blu-Ray)
Disc Size: 44844534240 bytes
Protection: AACS
BD-Java: No
BDInfo: 0.5.8

PLAYLIST REPORT:

Name: 00004.MPLS
Length: 0:35:29.127 (h:m:s.ms)
Size: 6020050944 bytes
Total Bitrate: 22,62 Mbps

VIDEO:

Codec Bitrate Description
----- ------- -----------
MPEG-4 AVC Video 19908 kbps 480i / 29,970 fps / 16:9 / High Profile 4.1

AUDIO:

Codec Language Bitrate Description
----- -------- ------- -----------
Dolby Digital Audio Russian 384 kbps 2.0 / 48 kHz / 384 kbps
Dolby Digital Audio Russian 384 kbps 2.0 / 48 kHz / 384 kbps
Dolby Digital Audio Japanese 384 kbps 2.0 / 48 kHz / 384 kbps
Dolby Digital Audio Japanese 384 kbps 2.0 / 48 kHz / 384 kbps

SUBTITLES:

Codec Language Bitrate Description
----- -------- ------- -----------
Presentation Graphics Russian 18,097 kbps
Presentation Graphics Russian 18,097 kbps

FILES:

Name Time In Length Size Total Bitrate
---- ------- ------ ---- -------------
00001.M2TS 0:00:00.000 0:06:14.374 1061670912 22687
00002.M2TS 0:06:14.374 0:02:21.140 398825472 22606
00003.M2TS 0:08:35.515 0:04:57.297 838963200 22576
00004.M2TS 0:13:32.812 0:03:19.198 561076224 22533
00005.M2TS 0:16:52.011 0:05:32.332 935135232 22511
00006.M2TS 0:22:24.342 0:13:04.784 2224379904 22675

CHAPTERS:

Number Time In Length Avg Video Rate Max 1-Sec Rate Max 1-Sec Time Max 5-Sec Rate Max 5-Sec Time Max 10Sec Rate Max 10Sec Time Avg Frame Size Max Frame Size Max Frame Time
------ ------- ------ -------------- -------------- -------------- -------------- -------------- -------------- -------------- -------------- -------------- --------------
1 0:00:00.000 0:06:14.374 19974 kbps 26510 kbps 00:04:20.860 25591 kbps 00:04:23.096 25431 kbps 00:04:18.958 83307 bytes 112301 bytes 00:00:38.038
2 0:06:14.374 0:02:21.140 19895 kbps 25507 kbps 00:07:46.666 24924 kbps 00:07:43.729 24605 kbps 00:07:04.223 82999 bytes 112310 bytes 00:06:19.379
3 0:08:35.515 0:04:57.297 19865 kbps 26015 kbps 00:10:58.557 25149 kbps 00:10:58.457 24744 kbps 00:10:57.456 82864 bytes 112308 bytes 00:11:10.836
4 0:13:32.812 0:03:19.198 19818 kbps 25660 kbps 00:15:49.515 25273 kbps 00:15:41.507 25108 kbps 00:15:40.706 82673 bytes 112304 bytes 00:13:47.827
5 0:16:52.011 0:05:32.331 19804 kbps 26595 kbps 00:20:14.179 26453 kbps 00:20:10.242 26248 kbps 00:20:05.237 82607 bytes 112314 bytes 00:21:13.005
6 0:22:24.342 0:13:04.784 19962 kbps 26558 kbps 00:30:45.109 26080 kbps 00:28:01.312 25135 kbps 00:27:58.777 83266 bytes 112312 bytes 00:27:13.598

STREAM DIAGNOSTICS:

File PID Type Codec Language Seconds Bitrate Bytes Packets
---- --- ---- ----- -------- -------------- -------------- ------------- -----
00001.M2TS 4113 (0x1011) 0x1B AVC 374,241 19981 934707539 5086474
00001.M2TS 4352 (0x1100) 0x81 AC3 rus (Russian) 374,241 384 17971200 105300
00001.M2TS 4353 (0x1101) 0x81 AC3 rus (Russian) 374,241 384 17971200 105300
00001.M2TS 4354 (0x1102) 0x81 AC3 jpn (Japanese) 374,241 384 17971200 105300
00001.M2TS 4355 (0x1103) 0x81 AC3 jpn (Japanese) 374,241 384 17971200 105300
00001.M2TS 4608 (0x1200) 0x90 PGS rus (Russian) 374,241 17 810373 4645
00001.M2TS 4609 (0x1201) 0x90 PGS rus (Russian) 374,241 17 810373 4645
00002.M2TS 4113 (0x1011) 0x1B AVC 141,008 19914 351003116 1910065
00002.M2TS 4352 (0x1100) 0x81 AC3 rus (Russian) 141,008 384 6775296 39699
00002.M2TS 4353 (0x1101) 0x81 AC3 rus (Russian) 141,008 384 6775296 39699
00002.M2TS 4354 (0x1102) 0x81 AC3 jpn (Japanese) 141,008 384 6775296 39699
00002.M2TS 4355 (0x1103) 0x81 AC3 jpn (Japanese) 141,008 384 6775296 39699
00002.M2TS 4608 (0x1200) 0x90 PGS rus (Russian) 141,008 17 306557 1805
00002.M2TS 4609 (0x1201) 0x90 PGS rus (Russian) 141,008 17 306557 1805
00003.M2TS 4113 (0x1011) 0x1B AVC 297,164 19874 738234627 4017314
00003.M2TS 4352 (0x1100) 0x81 AC3 rus (Russian) 297,164 384 14270976 83619
00003.M2TS 4353 (0x1101) 0x81 AC3 rus (Russian) 297,164 384 14270976 83619
00003.M2TS 4354 (0x1102) 0x81 AC3 jpn (Japanese) 297,164 384 14270976 83619
00003.M2TS 4355 (0x1103) 0x81 AC3 jpn (Japanese) 297,164 384 14270976 83619
00003.M2TS 4608 (0x1200) 0x90 PGS rus (Russian) 297,164 18 679276 3915
00003.M2TS 4609 (0x1201) 0x90 PGS rus (Russian) 297,164 18 679276 3915
00004.M2TS 4113 (0x1011) 0x1B AVC 199,066 19832 493472633 2685373
00004.M2TS 4352 (0x1100) 0x81 AC3 rus (Russian) 199,066 384 9561600 56025
00004.M2TS 4353 (0x1101) 0x81 AC3 rus (Russian) 199,066 384 9561600 56025
00004.M2TS 4354 (0x1102) 0x81 AC3 jpn (Japanese) 199,066 384 9561600 56025
00004.M2TS 4355 (0x1103) 0x81 AC3 jpn (Japanese) 199,066 384 9561600 56025
00004.M2TS 4608 (0x1200) 0x90 PGS rus (Russian) 199,066 22 538030 3064
00004.M2TS 4609 (0x1201) 0x90 PGS rus (Russian) 199,066 22 538030 3064
00005.M2TS 4113 (0x1011) 0x1B AVC 332,199 19812 822684547 4476862
00005.M2TS 4352 (0x1100) 0x81 AC3 rus (Russian) 332,199 384 15952896 93474
00005.M2TS 4353 (0x1101) 0x81 AC3 rus (Russian) 332,199 384 15952896 93474
00005.M2TS 4354 (0x1102) 0x81 AC3 jpn (Japanese) 332,199 384 15952896 93474
00005.M2TS 4355 (0x1103) 0x81 AC3 jpn (Japanese) 332,199 384 15952896 93474
00005.M2TS 4608 (0x1200) 0x90 PGS rus (Russian) 332,199 18 747696 4292
00005.M2TS 4609 (0x1201) 0x90 PGS rus (Russian) 332,199 18 747696 4292
00006.M2TS 4113 (0x1011) 0x1B AVC 784,651 19966 1958254894 10656390
00006.M2TS 4352 (0x1100) 0x81 AC3 rus (Russian) 784,651 384 37668864 220716
00006.M2TS 4353 (0x1101) 0x81 AC3 rus (Russian) 784,651 384 37668864 220716
00006.M2TS 4354 (0x1102) 0x81 AC3 jpn (Japanese) 784,651 384 37668864 220716
00006.M2TS 4355 (0x1103) 0x81 AC3 jpn (Japanese) 784,651 384 37668864 220716
00006.M2TS 4608 (0x1200) 0x90 PGS rus (Russian) 784,651 18 1734537 9874
00006.M2TS 4609 (0x1201) 0x90 PGS rus (Russian) 784,651 18 1734537 9874

<---- END FORUMS PASTE ---->

QUICK SUMMARY:

Disc Title: Summer Wars (Blu-Ray)
Disc Size: 44844534240 bytes
Protection: AACS
BD-Java: No
Playlist: 00004.MPLS
Size: 6020050944 bytes
Length: 0:35:29.127
Total Bitrate: 22,62 Mbps
Video: MPEG-4 AVC Video / 19908 kbps / 480i / 29,970 fps / 16:9 / High Profile 4.1
Audio: Russian / Dolby Digital Audio / 2.0 / 48 kHz / 384 kbps
Audio: Russian / Dolby Digital Audio / 2.0 / 48 kHz / 384 kbps
Audio: Japanese / Dolby Digital Audio / 2.0 / 48 kHz / 384 kbps
Audio: Japanese / Dolby Digital Audio / 2.0 / 48 kHz / 384 kbps
Subtitle: Russian / 18,097 kbps
Subtitle: Russian / 18,097 kbps

********************
PLAYLIST: 00008.MPLS
********************

<--- BEGIN FORUMS PASTE --->
Total Video
Title Codec Length Movie Size Disc Size Bitrate Bitrate Main Audio Track Secondary Audio Track
----- ------ ------- -------------- -------------- ------- ------- ------------------ ---------------------
00008.MPLS AVC 0:08:06 609396288 44844534240 10,02 9,53

DISC INFO:

Disc Title: Summer Wars (Blu-Ray)
Disc Size: 44844534240 bytes
Protection: AACS
BD-Java: No
BDInfo: 0.5.8

PLAYLIST REPORT:

Name: 00008.MPLS
Length: 0:08:06.527 (h:m:s.ms)
Size: 609396288 bytes
Total Bitrate: 10,02 Mbps

VIDEO:

Codec Bitrate Description
----- ------- -----------
MPEG-4 AVC Video 9532 kbps 1080p / 23,976 fps / 16:9 / High Profile 4.1

FILES:

Name Time In Length Size Total Bitrate
---- ------- ------ ---- -------------
00016.M2TS 0:00:00.000 0:08:06.527 609396288 10019

CHAPTERS:

Number Time In Length Avg Video Rate Max 1-Sec Rate Max 1-Sec Time Max 5-Sec Rate Max 5-Sec Time Max 10Sec Rate Max 10Sec Time Avg Frame Size Max Frame Size Max Frame Time
------ ------- ------ -------------- -------------- -------------- -------------- -------------- -------------- -------------- -------------- -------------- --------------
1 0:00:00.000 0:08:03.482 9592 kbps 18941 kbps 00:02:39.659 15766 kbps 00:02:36.781 14943 kbps 00:02:34.112 50002 bytes 619398 bytes 00:02:15.468
2 0:08:03.482 0:00:03.044 155 kbps 301 kbps 00:08:04.233 0 kbps 00:00:00.000 0 kbps 00:00:00.000 842 bytes 17047 bytes 00:08:04.317

STREAM DIAGNOSTICS:

File PID Type Codec Language Seconds Bitrate Bytes Packets
---- --- ---- ----- -------- -------------- -------------- ------------- -----
00016.M2TS 4113 (0x1011) 0x1B AVC 486,444 9534 579739150 3157639

<---- END FORUMS PASTE ---->

QUICK SUMMARY:

Disc Title: Summer Wars (Blu-Ray)
Disc Size: 44844534240 bytes
Protection: AACS
BD-Java: No
Playlist: 00008.MPLS
Size: 609396288 bytes
Length: 0:08:06.527
Total Bitrate: 10,02 Mbps
Video: MPEG-4 AVC Video / 9532 kbps / 1080p / 23,976 fps / 16:9 / High Profile 4.1

********************
PLAYLIST: 00005.MPLS
********************

<--- BEGIN FORUMS PASTE --->
Total Video
Title Codec Length Movie Size Disc Size Bitrate Bitrate Main Audio Track Secondary Audio Track
----- ------ ------- -------------- -------------- ------- ------- ------------------ ---------------------
00005.MPLS AVC 0:03:27 855433344 44844534240 32,94 29,68 DD AC3 2.0 384Kbps

DISC INFO:

Disc Title: Summer Wars (Blu-Ray)
Disc Size: 44844534240 bytes
Protection: AACS
BD-Java: No
BDInfo: 0.5.8

PLAYLIST REPORT:

Name: 00005.MPLS
Length: 0:03:27.749 (h:m:s.ms)
Size: 855433344 bytes
Total Bitrate: 32,94 Mbps

VIDEO:

Codec Bitrate Description
----- ------- -----------
MPEG-4 AVC Video 29680 kbps 1080p / 23,976 fps / 16:9 / High Profile 4.1

AUDIO:

Codec Language Bitrate Description
----- -------- ------- -----------
Dolby Digital Audio Russian 384 kbps 2.0 / 48 kHz / 384 kbps
Dolby Digital Audio Russian 384 kbps 2.0 / 48 kHz / 384 kbps
Dolby Digital Audio Japanese 384 kbps 2.0 / 48 kHz / 384 kbps
Dolby Digital Audio Japanese 384 kbps 2.0 / 48 kHz / 384 kbps

SUBTITLES:

Codec Language Bitrate Description
----- -------- ------- -----------
Presentation Graphics Russian 63,812 kbps
Presentation Graphics Russian 63,812 kbps

FILES:

Name Time In Length Size Total Bitrate
---- ------- ------ ---- -------------
00021.M2TS 0:00:00.000 0:00:33.033 75986304 18379
00019.M2TS 0:00:33.033 0:01:52.445 498699648 35467
00020.M2TS 0:02:25.478 0:01:02.270 280747392 36044

CHAPTERS:

Number Time In Length Avg Video Rate Max 1-Sec Rate Max 1-Sec Time Max 5-Sec Rate Max 5-Sec Time Max 10Sec Rate Max 10Sec Time Avg Frame Size Max Frame Size Max Frame Time
------ ------- ------ -------------- -------------- -------------- -------------- -------------- -------------- -------------- -------------- -------------- --------------
1 0:00:00.000 0:00:33.033 15756 kbps 57494 kbps 00:00:00.917 37782 kbps 00:00:25.650 24289 kbps 00:00:20.520 82248 bytes 598235 bytes 00:00:00.959
2 0:00:33.033 0:01:52.445 32125 kbps 52410 kbps 00:01:21.748 39747 kbps 00:00:34.701 37317 kbps 00:00:33.950 167610 bytes 909189 bytes 00:01:35.178
3 0:02:25.478 0:01:02.270 32710 kbps 56249 kbps 00:03:10.189 39551 kbps 00:03:10.189 37423 kbps 00:02:42.078 170876 bytes 844417 bytes 00:03:22.327

STREAM DIAGNOSTICS:

File PID Type Codec Language Seconds Bitrate Bytes Packets
---- --- ---- ----- -------- -------------- -------------- ------------- -----
00021.M2TS 4113 (0x1011) 0x1B AVC 32,908 15816 65059244 354018
00021.M2TS 4352 (0x1100) 0x81 AC3 rus (Russian) 32,908 385 1585152 9288
00021.M2TS 4353 (0x1101) 0x81 AC3 rus (Russian) 32,908 444 1826304 10701
00021.M2TS 4354 (0x1102) 0x81 AC3 jpn (Japanese) 32,908 385 1585152 9288
00021.M2TS 4355 (0x1103) 0x81 AC3 jpn (Japanese) 32,908 385 1585152 9288
00021.M2TS 4608 (0x1200) 0x90 PGS rus (Russian) 32,908 39 162435 933
00021.M2TS 4609 (0x1201) 0x90 PGS rus (Russian) 32,908 39 162435 933
00019.M2TS 4113 (0x1011) 0x1B AVC 112,362 32149 451541935 2455612
00019.M2TS 4352 (0x1100) 0x81 AC3 rus (Russian) 112,362 384 5397504 31626
00019.M2TS 4353 (0x1101) 0x81 AC3 rus (Russian) 112,362 384 5397504 31626
00019.M2TS 4354 (0x1102) 0x81 AC3 jpn (Japanese) 112,362 384 5397504 31626
00019.M2TS 4355 (0x1103) 0x81 AC3 jpn (Japanese) 112,362 384 5397504 31626
00019.M2TS 4608 (0x1200) 0x90 PGS rus (Russian) 112,362 72 1016781 5744
00019.M2TS 4609 (0x1201) 0x90 PGS rus (Russian) 112,362 72 1016781 5744
00020.M2TS 4113 (0x1011) 0x1B AVC 62,187 32754 254607258 1384616
00020.M2TS 4352 (0x1100) 0x81 AC3 rus (Russian) 62,187 385 2989056 17514
00020.M2TS 4353 (0x1101) 0x81 AC3 rus (Russian) 62,187 385 2989056 17514
00020.M2TS 4354 (0x1102) 0x81 AC3 jpn (Japanese) 62,187 385 2989056 17514
00020.M2TS 4355 (0x1103) 0x81 AC3 jpn (Japanese) 62,187 385 2989056 17514
00020.M2TS 4608 (0x1200) 0x90 PGS rus (Russian) 62,187 62 478881 2719
00020.M2TS 4609 (0x1201) 0x90 PGS rus (Russian) 62,187 62 478881 2719

<---- END FORUMS PASTE ---->

QUICK SUMMARY:

Disc Title: Summer Wars (Blu-Ray)
Disc Size: 44844534240 bytes
Protection: AACS
BD-Java: No
Playlist: 00005.MPLS
Size: 855433344 bytes
Length: 0:03:27.749
Total Bitrate: 32,94 Mbps
Video: MPEG-4 AVC Video / 29680 kbps / 1080p / 23,976 fps / 16:9 / High Profile 4.1
Audio: Russian / Dolby Digital Audio / 2.0 / 48 kHz / 384 kbps
Audio: Russian / Dolby Digital Audio / 2.0 / 48 kHz / 384 kbps
Audio: Japanese / Dolby Digital Audio / 2.0 / 48 kHz / 384 kbps
Audio: Japanese / Dolby Digital Audio / 2.0 / 48 kHz / 384 kbps
Subtitle: Russian / 63,812 kbps
Subtitle: Russian / 63,812 kbps

********************
PLAYLIST: 00003.MPLS
********************

<--- BEGIN FORUMS PASTE --->
Total Video
Title Codec Length Movie Size Disc Size Bitrate Bitrate Main Audio Track Secondary Audio Track
----- ------ ------- -------------- -------------- ------- ------- ------------------ ---------------------
00003.MPLS AVC 0:00:25 22029888 44844534240 6,78 5,87 DD AC3 2.0 384Kbps

DISC INFO:

Disc Title: Summer Wars (Blu-Ray)
Disc Size: 44844534240 bytes
Protection: AACS
BD-Java: No
BDInfo: 0.5.8

PLAYLIST REPORT:

Name: 00003.MPLS
Length: 0:00:25.984 (h:m:s.ms)
Size: 22029888 bytes
Total Bitrate: 6,78 Mbps

VIDEO:

Codec Bitrate Description
----- ------- -----------
MPEG-4 AVC Video 5869 kbps 1080p / 23,976 fps / 16:9 / High Profile 4.1

AUDIO:

Codec Language Bitrate Description
----- -------- ------- -----------
Dolby Digital Audio Russian 384 kbps 2.0 / 48 kHz / 384 kbps / DN -4dB

FILES:

Name Time In Length Size Total Bitrate
---- ------- ------ ---- -------------
00013.M2TS 0:00:00.000 0:00:25.984 22029888 6772

CHAPTERS:

Number Time In Length Avg Video Rate Max 1-Sec Rate Max 1-Sec Time Max 5-Sec Rate Max 5-Sec Time Max 10Sec Rate Max 10Sec Time Avg Frame Size Max Frame Size Max Frame Time
------ ------- ------ -------------- -------------- -------------- -------------- -------------- -------------- -------------- -------------- -------------- --------------
1 0:00:00.000 0:00:09.384 1186 kbps 4252 kbps 00:00:00.125 1264 kbps 00:00:00.125 0 kbps 00:00:00.000 6154 bytes 71438 bytes 00:00:09.384
2 0:00:09.384 0:00:09.551 3612 kbps 8325 kbps 00:00:09.467 3807 kbps 00:00:09.384 0 kbps 00:00:00.000 18830 bytes 184687 bytes 00:00:10.218
3 0:00:18.935 0:00:07.048 15196 kbps 43261 kbps 00:00:19.018 21390 kbps 00:00:18.935 0 kbps 00:00:00.000 80658 bytes 560349 bytes 00:00:19.227

STREAM DIAGNOSTICS:

File PID Type Codec Language Seconds Bitrate Bytes Packets
---- --- ---- ----- -------- -------------- -------------- ------------- -----
00013.M2TS 4113 (0x1011) 0x1B AVC 25,901 5897 19093550 104104
00013.M2TS 4352 (0x1100) 0x81 AC3 rus (Russian) 25,901 500 1617408 9477

<---- END FORUMS PASTE ---->

QUICK SUMMARY:

Disc Title: Summer Wars (Blu-Ray)
Disc Size: 44844534240 bytes
Protection: AACS
BD-Java: No
Playlist: 00003.MPLS
Size: 22029888 bytes
Length: 0:00:25.984
Total Bitrate: 6,78 Mbps
Video: MPEG-4 AVC Video / 5869 kbps / 1080p / 23,976 fps / 16:9 / High Profile 4.1
Audio: Russian / Dolby Digital Audio / 2.0 / 48 kHz / 384 kbps / DN -4dB
<a href="viewtopic.php?t=2821355" class="postLink">2821355</a>, <a href="viewtopic.php?t=2839293" class="postLink">2839293</a>: Blu-Ray, ;
<a href="viewtopic.php?t=2924827" class="postLink">2924827</a>, <a href="viewtopic.php?t=3328598" class="postLink">3328598</a>: Blu-Ray, 1080p, ;
<a href="viewtopic.php?t=5160020" class="postLink">5160020</a>: Blu-Ray.


 ·  , , FAQ-
:  [ 07--2016 22:00 ]

  

.torrent

.torrent 57 KB


: 41.76 GB
(hash) : fe434b50e756b26ca75b4ab364ff4b1ef6dc0828
:
··
...

, Summer Wars

S L
| HD Rips ··  / Summer Wars [Movie] [ ] [RUS(ext), JAP+SUB] [2009 ., , , , BDRemux] [1080p] Galfimbul 4016446330137.41 GB 0 0 1476052343

01:32

10--16

| HD Rips ··  / Summer Wars [Movie] [ ] [RUS(ext), JAP+SUB] [2009 ., , , , BDRip] [1080p] Galfimbul 2600192499924.22 GB 0 0 1475560586

08:56

4--16

| HD Rips ··  / Summer Wars [Movie] [ ] [RUS(ext), JAP+SUB] [2009 ., , , , BDRemux] [1080p] Galfimbul 4694571550643.72 GB 0 0 1475560578

08:56

4--16

| HD Rips ··  / Summer Wars [Movie] [ ] [RUS(ext), JAP+SUB] [2009 ., , , , BDRemux] [1080p] Galfimbul 4304910312240.09 GB 0 0 1475342338

20:18

1--16

| HD Rips ··  / Summer Wars [Movie] [ ] [RUS(ext), JAP+SUB] [2009 ., , , , BDRip] [1080p] Galfimbul 2210530780220.59 GB 0 0 1475342316

20:18

1--16

| DVD ··  / Summer Wars [Movie] [RUS, JAP+SUB] [2009 ., , , DVD9] Galfimbul 83237355527.75 GB 2 0 1472850171

00:02

3--16

| HD Rips ··  / Summer Wars [Movie] [ ] [RUS(int), JAP+SUB] [2009 ., , , , Blu-ray] [1080p] Galfimbul 4484453424041.76 GB 0 0 1472850145

00:02

3--16

| DVD ··  / Summer War s[Movie] [RUS, JAP+SUB] [2009 ., , , DVD9] Galfimbul 83237355527.75 GB 0 0 1459996483

05:34

7--16

| HD Rips ··  / Summer Wars ( ) [Movie] [ ] [RUS(ext),JAP+SUB] [2009 ., , , , BDRip] [1080p] Galfimbul 101277099779.43 GB 0 0 1454005215

21:20

28--16

| HD Rips ··  / Summer Wars [Movie] [JAP+SUB] [2009 ., , , , BDrip] [1080p] Gawl99 1223189596811.39 GB 0 0 1363028637

22:03

11--13

| Rips ··  / Summer Wars [Movie] [RUS(Int)] [2009 ., , , , DVDRip] [] Axel_Rage 780216320744 MB 0 0 1290021606

22:20

17--10

| Rips ··  / Summer Wars [Movie][RUS(int), JAP+SUB] [2009 ., , , , DVDRip] [] Polarnik 20707000781.93 GB 0 0 1290021595

22:19

17--10

| HD Rips ··  / Summer Wars ( ) [Movie] [] [RUS(ext), JAP+SUB] [2009 ., , , , BDRip] [720p] Bot 25470133142.37 GB 0 0 1286481127

22:52

7--10

| HD Rips ··  / Summer Wars ( ) [Movie] [ ] [RUS(int),JAP+SUB] [2009 ., , , , BDRip] [720p] Bot 47016857704.38 GB 0 0 1286481037

22:50

7--10

| HD Rips ··  / Summer Wars ( ) [Movie] [ ] [JAP+SUB] [2009 ., , BDRip] [1080p] Bot 39602559263.69 GB 0 0 1286480968

22:49

7--10

Angelism

?

Summer Wars

!