Скачать через торрент Меланхолия Харухи Судзумии Suzumiya Haruhi no Yuuutsu бесплатно Аниме Все серии на русском torrent

Если у вас наблюдаются проблемы со скриншотами, переходом по ссылками, скачиванием торрентов - проблемы в блокировщике рекламы AdBlock. #хорошегоДня!


Статистика раздачи
Размер:  10.81 GB   |    Зарегистрирован:  1 год 8 месяцев   |    .torrent скачан:  78 раз   |   
Раздают:  1  
   
Загрузка...
 
Автор Сообщение

Galfimbul

avatar Galfimbul


Меланхолия Харухи Судзумии / Suzumiya Haruhi no Yuuutsu /
The Melancholy of Haruhi Suzumiya

Страна: Япония
Год выпуска: 2006 г.
Жанр: комедия, пародия, школа
Тип: TV
Продолжительность: 14 эп, ~25 мин. серия
Режиссер: Исихара Тацуя

Описание: Сузумия крайне оригинальна. Уже как минимум за это ее стоит посмотреть. Я не припомню аниме где бы подобные вопросы подымались с такой ироничной изысканностью изложения. Сериал балансирует на грани реального и нереального, так толком и не давая понять, насколько фантастично (или лучше сказать фантасмагорично?) происходящее. Главный герой представляет традиционное видение мира, в то время, как Сузмия - видение фантастическое. И к каждому в жизнь добавляется элемент противоположного. Кён втягивается в бузумную невероятную игру, на кону которой - судьба мира, а Харухи - в реальную жизнь; фактически, вся фантастичность проходит мимо нее, оставляю лишь побочные, обьяснимые моменты, позволяющие сохранить надежду на существование чего-то паранормального, но не более. Для каждого из них это парадоксальность происходящего с точки зрения их мировосприятия вносит определенные перемены в их жизнь. Для этого, кстати, и пермешаны серии - нас удивляют, немного забегая на перед истории преподносят нечто удивительное, чего нельзя было бы предположить с точки зрения предыдущих событий. Это не обязательно сами "фантастичности" - это могут быть так же чувства героев, которые в следующих, хронографичных сериях позволят нам немного по другому посмотреть на некоторые вещи.
Композиционный концептуализм, если хотите. И за это Kyoto Animation надо хвалить, а не хаять...
© Taleyran, World Art

Доп. информация: Качество TV-rip. Текст читает Анна Коростелева по заказу компании Animegroup в 2006 году. Это самая старая пиратская озвучка, которая была сделана ещё в момент показа аниме в Японии.

Качество: DVD5
Формат экрана: 16:9
Система / Разрешение: NTSC (720x480)
Средний битрейт: 4 412 Kbps
Аудио: AC-3, 192 Kbps, 2 channels Язык Русский
Аудио 2: AC-3, 192 Kbps, 2 channels Язык Японский
Язык субтитров: русский
GeneralComplete name : D:\Films\Suzumiya 2006\1\VIDEO_TS\VTS_03_1.VOBFormat : MPEG-PSFile size : 840 MiBDuration : 23mn 59sOverall bit rate mode : VariableOverall bit rate : 4 894 Kbps

VideoID : 224 (0xE0)Format : MPEG VideoFormat version : Version 2Format profile : Main@MainFormat settings, BVOP : YesFormat settings, Matrix : DefaultFormat settings, GOP : M=3, N=15Format settings, picture st : FrameDuration : 23mn 59sBit rate mode : VariableBit rate : 4 412 KbpsMaximum bit rate : 8 000 KbpsWidth : 720 pixelsHeight : 480 pixelsDisplay aspect ratio : 16:9Frame rate : 29.970 fpsStandard : NTSCColor space : YUVChroma subsampling : 4:2:0Bit depth : 8 bitsScan type : InterlacedScan order : Bottom Field FirstCompression mode : LossyBits/(Pixel*Frame) : 0.426Time code of first frame : 00:00:00:00Time code source : Group of pictures headerGOP, Open/Closed : OpenGOP, Open/Closed of first f : ClosedStream size : 757 MiB (90%)

Audio #1ID : 189 (0xBD)-128 (0x80)Format : AC-3Format/Info : Audio Coding 3Mode extension : CM (complete main)Format settings, Endianness : BigMuxing mode : DVD-VideoDuration : 23mn 59sBit rate mode : ConstantBit rate : 192 KbpsChannel(s) : 2 channelsChannel positions : Front: L RSampling rate : 48.0 KHzCompression mode : LossyStream size : 33.0 MiB (4%)

Audio #2ID : 189 (0xBD)-129 (0x81)Format : AC-3Format/Info : Audio Coding 3Mode extension : CM (complete main)Format settings, Endianness : BigMuxing mode : DVD-VideoDuration : 23mn 59sBit rate mode : ConstantBit rate : 192 KbpsChannel(s) : 2 channelsChannel positions : Front: L RSampling rate : 48.0 KHzCompression mode : LossyStream size : 33.0 MiB (4%)

Text #1ID : 189 (0xBD)-33 (0x21)Format : RLEFormat/Info : Run-length encodingMuxing mode : DVD-VideoDelay relative to video : 2s 252ms

Text #2ID : 189 (0xBD)-34 (0x22)Format : RLEFormat/Info : Run-length encodingMuxing mode : DVD-VideoDelay relative to video : 2s 252ms

Menu
<a href="viewtopic.php?t=4321129" class="postLink">...4321129</a> - DVD-5, там DVD-9; альтернативная озвучка


Трекер:  [ 08-Апр-2016 22:30 ]

  

Скачать .torrent

Размер .torrent файла 31 KB


Размер: 10.81 GB
Хэш (hash) релиза: 020afe2d97a479f771e19d5ef4424ac970d44a4b
Подписка на обновления:

Торренты, похожие на Меланхолия Харухи Судзумии Suzumiya Haruhi no Yuuutsu скачать торрент

Форум Название Автор Размер S L Добавлен
Аниме | Rips ·· Меланхолия Харухи Судзумии / Suzumiya Haruhi no Yuuutsu / The Melancholy of Haruhi Suzumiya (Исихара Тацуя) [TV] [1 сезон] [14 из 14] [RUS(ext),JAP+SUB] [Без хардсаба] [2006 г., комедия, фантастика, школа, DVDRip] Polarnik 1471845569513.71 GB 0 0 1382020876

17:41

17-Окт-13

Манга ·· Tanigawa Nagaru - Меланхолия Харухи Судзумии / Suzumiya Haruhi no Yuuutsu / The Melancholy of Haruhi Suzumiya [manga] [главы 1-28] [2005 г., экшн, сёнэн, мистика, психология, сверхъестественное, комедия, романтика, школа, повседневность] [incomplete] Polarnik 324721507310 MB 0 0 1372949242

17:47

4-Июл-13

Аниме | HD Rips ·· Меланхолия Харухи Судзумии / Suzumiya Haruhi no Yuuutsu / The Melancholy of Haruhi Suzumiya [Исихара Тацуя][TV][1 сезон][14 из 14][JAP + SUB][Без хардсаба][2006 г., комедия, фантастика, школа., BDRip][1080p] L 1353615907012.61 GB 0 0 1364468351

13:59

28-Мар-13

Аниме | HD Rips ·· Меланхолия Харухи Судзумии / Suzumiya Haruhi no Yuuutsu / The Melancholy of Haruhi Suzumiya [Исихара Тацуя][TV][1 сезон][14 из 14][RUS(ext),JAP+SUB][Без хардсаба][2006 г., комедия, фантастика, школа, BDRip][720p] L 75595976397.04 GB 0 0 1364468307

13:58

28-Мар-13

Аниме | DVD ·· Меланхолия Харухи Судзумии (ТВ-1) / The Melancholy of Haruhi Suzumiya / Suzumiya Haruhi no Yuuutsu (Исихара Тацуя) [TV] [14 из 14] [RUS, JAP+SUB] [2006 г., комедия, фантастика, школа 8xDVD9] Polarnik 5566626201651.84 GB 0 0 1365431496

17:31

8-Апр-13

Аниме | HD Rips ·· Меланхолия Харухи Судзумии 2 / Suzumiya Haruhi no Yuuutsu 2 / The Melancholy of Haruhi Suzumiya 2 [Исихара Тацуя][TV-2][2 сезон][14 из 14][RUS(ext),JAP+SUB][Без хардсаба][2009 г., комедия, фантастика, школа, BDRip][720p] L 98744728539.2 GB 0 0 1364468343

13:59

28-Мар-13

Аниме | HD Rips ·· Меланхолия Харухи Судзумии 2 / Suzumiya Haruhi no Yuuutsu 2 / The Melancholy of Haruhi Suzumiya 2 [Исихара Тацуя][TV][2 сезон][14 из 14][JAP + SUB][Без хардсаба][2009г., комедия, фантастика, школа., BDRip][1080p] L 1120856440810.44 GB 0 0 1346777460

19:51

4-Сен-12

Еще никто не оставлял запись к записи скачать торрент Меланхолия Харухи Судзумии Suzumiya Haruhi no Yuuutsu . Будь первым!

!Обратная связь