Скачать через торрент музыку Винил Vinyl бесплатно без регистрации torrent

Если у вас наблюдаются проблемы со скриншотами, переходом по ссылками, скачиванием торрентов - проблемы в блокировщике рекламы AdBlock. #хорошегоДня!


Статистика раздачи
Размер:  400 MB   |    Зарегистрирован:  1 год 7 месяцев   |    .torrent скачан:  80 раз   |   
Раздают:  1  
   
Загрузка...
 
Автор Сообщение

Galfimbul

avatar Galfimbul


Винил / Vinyl

Название альбома: VINYL - The Essentials: Best of Season 1
Жанр: Soundtrack, rock, blues, funk
Носитель: WEB
Год выпуска диска: 2016
Год выпуска фильма: 2016
Издатель (лейбл): Atlantic/Warner Bros.
Аудиокодек: FLAC (*.flac)
Тип рипа: tracks
Битрейт аудио: lossless
Продолжительность: 00:59:07
Источник: скачано с Kinozal.ME
Наличие сканов в содержимом раздачи: нет

Треклист:
01. Alex Newell - Kill The Lights (with Nile Rodgers) (4:35)
02. Charlie Wilson - Alright Lady (Let's Make A Baby) (3:50)
03. Elvis Costello - Back Stabbers (3:13)
04. Trey Songz - Life On Mars (3:55)
05. Iggy Pop - I Dig Your Mind (2:53)
06. Charli XCX - No Fun (4:00)
07. JOHN DOE - Strychnine (2:33)
08. Royal Blood - Where Are You Now (2:47)
09. The Arcs - Watch Your Step (2:59)
10. Chris Cornell - Stay With Me Baby (4:17)
11. Ty Taylor - I've Been Wrong So Long (2:21)
12. Nasty Bits - Woman Like You (2:37)
13. Sturgill Simpson - Sugar Daddy (Theme from Vinyl) (3:46)
14. Julian Casablancas - Venus In Furs (4:57)
15. Charlie Wilson - Love, I Want You Back (4:03)
16. Humble Pie - Black Coffee (3:11)
17. Nate Ruess - I Wanna Be With You (3:07)
-----------------------

DON'T MODIFY THIS FILE

-----------------------

PERFORMER: auCDtect Task Manager, ver. 1.5.1RC6 build 1.5.1.7Copyright (c) 2008-2010 y-soft. All rights reservedhttp://y-soft.org

ANALYZER: auCDtect: CD records authenticity detector, version 0.8.2Copyright (c) 2004 Oleg Berngardt. All rights reserved.Copyright (c) 2004 Alexander Djourik. All rights reserved.

FILE: 01 - Alex Newell - Kill The Lights (with Nile Rodgers).flac Size: 35857730 Hash: 34E19D27D6DA2A8695E8C0F4B276CDE9 Accuracy: -m8 Conclusion: CDDA 100% Signature: 443F9416499BD719FA930D41D7B66D6A3E701526FILE: 02 - Charlie Wilson - Alright Lady (Let's Make A Baby).flac Size: 29296560 Hash: 00DB67B6A50768CC4D30513C3B791527 Accuracy: -m8 Conclusion: CDDA 100% Signature: DB646BC2596AD3C1D2254FCA61AAA808FC354FABFILE: 03 - Elvis Costello - Back Stabbers.flac Size: 21402147 Hash: 5BF8143502EE29DF3B11613BF8AA8ACA Accuracy: -m8 Conclusion: CDDA 100% Signature: 61542856FB88C3F47FE66BB38E4C14987A096727FILE: 04 - Trey Songz - Life On Mars.flac Size: 21308918 Hash: 282CE677DACEDAB75DF68960817CA8CE Accuracy: -m8 Conclusion: CDDA 100% Signature: 081F78C92A157F595ED30F47267E5B6F66DA6753FILE: 05 - Iggy Pop - I Dig Your Mind.flac Size: 20778362 Hash: 59A1252A80777FC4B8F667317B0A79F7 Accuracy: -m8 Conclusion: CDDA 100% Signature: 9F2CF174D93C3B5CD25E4687B48E9234BD92BAEAFILE: 06 - Charli Xcx - No Fun.flac Size: 29048497 Hash: 856361267490D14E3F7FE0DF83C7E9E0 Accuracy: -m8 Conclusion: CDDA 100% Signature: 6A1B66960FA1902229B1F277D145BC1B8702B95BFILE: 07 - JOHN DOE - Strychnine.flac Size: 19613365 Hash: 6CFA1A34BD34A987D725DA37143162FB Accuracy: -m8 Conclusion: CDDA 100% Signature: 2FB0A86ACFC30A2F4EDE2723C6005F613FB05712FILE: 08 - Royal Blood - Where Are You Now.flac Size: 20290654 Hash: CF88F7F7D3419E2FC7977216784C53E8 Accuracy: -m8 Conclusion: CDDA 100% Signature: A564B2E7BE267AF0215150CBDA0234FA3EF669C4FILE: 09 - The Arcs - Watch Your Step.flac Size: 20820038 Hash: 1D67D2B8D6F749679D9FDD8D3CA8E661 Accuracy: -m8 Conclusion: CDDA 100% Signature: 37756437EED85C46B4312659617A48C3D7BD82DAFILE: 10 - Chris Cornell - Stay With Me Baby.flac Size: 31143608 Hash: A38C6E5E911CE1A5157A31DBBEC35889 Accuracy: -m8 Conclusion: CDDA 100% Signature: 8F8451EED474AFAD3E62A8A4F79980C2620E3712FILE: 11 - Ty Taylor - I've Been Wrong So Long.flac Size: 14590668 Hash: CA251566F518DD0294B616AACC7B7708 Accuracy: -m8 Conclusion: CDDA 100% Signature: C3F3BA5A203EF34ED61E90EC95FD6CC51B288AC5FILE: 12 - Nasty Bits - Woman Like You.flac Size: 18783377 Hash: A16AC1BD4E4BD11D1688A6F425160F9D Accuracy: -m8 Conclusion: CDDA 99% Signature: DCB3E53B28AF22A0B9BF2490A9D8F4C2BA029939FILE: 13 - Sturgill Simpson - Sugar Daddy (Theme from Vinyl).flac Size: 25512962 Hash: 648685A44481317C6C0F235956359230 Accuracy: -m8 Conclusion: CDDA 100% Signature: 7BD9E448872BB837B8D5E34C222C05767AFD0595FILE: 14 - Julian Casablancas - Venus In Furs.flac Size: 34690240 Hash: 97601B7AC819FF075FE892BE71BD8548 Accuracy: -m8 Conclusion: CDDA 100% Signature: 4A89AB2CFB67EF2DA9763908032CAD841826A4B6FILE: 15 - Charlie Wilson - Love, I Want You Back.flac Size: 31410302 Hash: E0C5AD77BC1E989B5305EECAEABCC70C Accuracy: -m8 Conclusion: CDDA 100% Signature: 3DD09A8D942AFAA91B0FE86306A47162CFE1157AFILE: 16 - Humble Pie - Black Coffee.flac Size: 21569113 Hash: D838134D0866C3196A01D5C788CC950F Accuracy: -m8 Conclusion: CDDA 99% Signature: D77936B4C6A31931EC771431F9D18199E46E9CE1FILE: 17 - Nate Ruess - I Wanna Be With You.flac Size: 23013195 Hash: 844D3400C5E28DDAE7D802194CAB2464 Accuracy: -m8 Conclusion: CDDA 99% Signature: A1C51F13DC5405D3CDEFE155BCEAE743BAB34F01
foobar2000 1.3.8 / Dynamic Range Meter 1.1.1log date: 2016-04-16 07:26:47

--------------------------------------------------------------------------------Analyzed: Alex Newell / VINYL - The Essentials: Best of Season 1 (1) Charli XCX / VINYL - The Essentials: Best of Season 1 (2) Charlie Wilson / VINYL - The Essentials: Best of Season 1 (3-4) Chris Cornell / VINYL - The Essentials: Best of Season 1 (5) Elvis Costello / VINYL - The Essentials: Best of Season 1 (6) Humble Pie / VINYL - The Essentials: Best of Season 1 (7) Iggy Pop / VINYL - The Essentials: Best of Season 1 (8) JOHN DOE / VINYL - The Essentials: Best of Season 1 (9) Julian Casablancas / VINYL - The Essentials: Best of Season 1 (10) Nasty Bits / VINYL - The Essentials: Best of Season 1 (11) Nate Ruess / VINYL - The Essentials: Best of Season 1 (12) Royal Blood / VINYL - The Essentials: Best of Season 1 (13) Sturgill Simpson / VINYL - The Essentials: Best of Season 1 (14) The Arcs / VINYL - The Essentials: Best of Season 1 (15) Trey Songz / VINYL - The Essentials: Best of Season 1 (16) Ty Taylor / VINYL - The Essentials: Best of Season 1 (17)--------------------------------------------------------------------------------

DR Peak RMS Duration Track--------------------------------------------------------------------------------DR6 -1.13 dB -8.37 dB 4:35 01-Kill The Lights (with Nile Rodgers)DR6 -0.18 dB -7.02 dB 4:00 06-No FunDR6 -0.02 dB -7.95 dB 3:50 02-Alright Lady (Let's Make A Baby)DR6 0.00 dB -7.19 dB 4:03 15-Love, I Want You BackDR6 0.00 dB -7.97 dB 4:17 10-Stay With Me BabyDR7 -0.08 dB -8.95 dB 3:13 03-Back StabbersDR7 -0.16 dB -10.22 dB 3:11 16-Black CoffeeDR6 -0.07 dB -7.34 dB 2:53 05-I Dig Your MindDR6 0.00 dB -6.51 dB 2:33 07-StrychnineDR6 -0.17 dB -7.04 dB 4:57 14-Venus In FursDR6 -0.02 dB -7.70 dB 2:37 12-Woman Like YouDR6 -0.02 dB -8.03 dB 3:07 17-I Wanna Be With YouDR5 -0.22 dB -6.19 dB 2:47 08-Where Are You NowDR6 -0.47 dB -9.04 dB 3:46 13-Sugar Daddy (Theme from Vinyl)DR6 -0.31 dB -7.93 dB 2:59 09-Watch Your StepDR11 -0.40 dB -13.61 dB 3:55 04-Life On MarsDR8 -0.27 dB -9.98 dB 2:21 11-I've Been Wrong So Long--------------------------------------------------------------------------------

Number of tracks: 17Official DR value: DR6

Samplerate: 44100 HzChannels: 2Bits per sample: 16Bitrate: 822 kbpsCodec: FLAC================================================================================


Трекер:  [ 16-Апр-2016 07:00 ]

  

Скачать .torrent

Размер .torrent файла 11 KB


Размер: 400 MB
Хэш (hash) релиза: 509ef9162649e40bc433d3e13f330a4854afb509

Торренты, похожие на Винил Vinyl скачать торрент

Форум Название Автор Размер S L Добавлен
Саундтреки к фильмам и мультфильмам (lossless) ·· (Soundtrack) Винил / Vinyl (VINYL: Music from the HBO Original Series - Volume 1) - 2016, FLAC (tracks+.cue), lossless Galfimbul 419735489400 MB 0 0 1455196999

16:23

11-Фев-16

Саундтреки к фильмам и мультфильмам (mp3) ·· (Soundtrack/TV) Винил / Vinyl (Music from the HBO Original Series - Volume 1) (Various Artists) - 2016, MP3, 320 kbps Galfimbul 150810410144 MB 0 0 1456510146

21:09

26-Фев-16

Еще никто не оставлял запись к записи скачать торрент Винил Vinyl . Будь первым!

!Обратная связь