Скачать через торрент Заражённый селектор WIXOSS бесплатно Аниме Все серии на русском torrent

Если у вас наблюдаются проблемы со скриншотами, переходом по ссылками, скачиванием торрентов - проблемы в блокировщике рекламы AdBlock. #хорошегоДня!


Статистика раздачи
Размер:  6.99 GB   |    Зарегистрирован:  1 год 7 месяцев   |    .torrent скачан:  20 раз   |   
Раздают:  1  
   
Загрузка...
 
Автор Сообщение

Galfimbul

avatar Galfimbul


Заражённый селектор WIXOSS (второй сезон) / Selector Spread WIXOSS
Год выпуска: 2014
Страна: Япония
Жанр: триллер, драма
Продолжительность: 12 эп. по 25 мин.
Перевод: русские субтитры - Seiya Loveless
Режиссёр: Сато Такуя
Студия: J.C. Staff
Информационные ссылки: AniDB || World Art || MAL
Описание: Коллекционная карточная игра «Виксосс» триумфально шествует по Японии, но мало кто знает про ее второй, потайной, слой. Знают немногочисленные девушки-Селекторы, которые сначала поверили создателям «живых карт» и честно бились за исполнение заветных желаний. И что же? Родились не одна, а сразу несколько «Бесконечных дев», только счастливее от этого никто не стал – ни победители, ни проигравшие. Неведомые силы, стоящие за игрой, четко продемонстрировали, что цели и правила у них свои, а кто не понял – сами виноваты.

Селекторы – не только избранницы, но и те, кто делает выбор. Главная героиня Руко Коминато, не способная причинить кому-то вред, решила пожертвовать собой - и ошиблась. Но поражения тоже учат, например тому, что выбор можно сделать снова, и если никто из дорогих людей не погиб, то их можно вернуть. Еще один урок, который предстоит усвоить девочке, давно сформулирован классиком: «лишь тот достоин жизни и свободы, кто каждый день за них идет на бой». Так что, Руко, долой толстовство, пора снова в Призрачный мир, а старые враги и неведомые пока союзники покажут путь в Белый Лабиринт, где, похоже, таятся все ответы!

© Hollow, World Art
Сопутствующие релизы
<ol class="post-ul">
<a href="viewtopic.php?t=4828804" class="postLink">первый сезон Selector Infected WIXOSS</a>
</ol>
Качество: BDRip
Источник: Coalgirls
Тип релиза: Без хардсаба
Формат видео: mkv
Видео: x264 (Hi10p), 1280x720, ~3000 kbps, 23.976 fps
Аудио JAP: FLAC, 48000Hz, ~1400 Kbps, 2ch
GeneralUnique ID : 122706979479715102932114739350508415613 (0x5C50812E8C8289361033096673A02A7D)Complete name : [Coalgirls] Selector Spread WIXOSS 01.mkvFormat : MatroskaFormat version : Version 4 / Version 2File size : 741 MiBDuration : 23mn 42sOverall bit rate mode : VariableOverall bit rate : 4 371 KbpsMovie name : selector spread WIXOSS 01 – This Curtain Rises SilentlyEncoded date : UTC 2015-10-23 22:37:20Writing application : mkvmerge v8.5.1 ('Where you lead I will follow') 64bitWriting library : libebml v1.3.3 + libmatroska v1.4.4Attachments : Bastard.ttf / Chief_Blueprint.ttf / Copybook.TTF / corbelb.ttf / corbelz.ttf / KOZMIN~1Strippedv2.otf / Mary Jane Meade.ttf / MARYJ.ttf / PiratesBay.ttf

VideoID : 1Format : AVCFormat/Info : Advanced Video CodecFormat profile : High 10@L5Format settings, CABAC : YesFormat settings, ReFrames : 16 framesCodec ID : V_MPEG4/ISO/AVCDuration : 23mn 42sBit rate : 2 933 KbpsWidth : 1 280 pixelsHeight : 720 pixelsDisplay aspect ratio : 16:9Frame rate mode : ConstantFrame rate : 23.976 (24000/1001) fpsColor space : YUVChroma subsampling : 4:2:0Bit depth : 10 bitsScan type : ProgressiveBits/(Pixel*Frame) : 0.133Stream size : 497 MiB (67%)Title : H.264Writing library : x264 core 148 r2597M [Coalgirls]Encoding settings : cabac=1 / ref=16 / deblock=1:0:0 / analyse=0x3:0x133 / me=umh / subme=11 / psy=1 / psy_rd=1.00:0.00 / mixed_ref=1 / me_range=24 / chroma_me=1 / trellis=2 / 8x8dct=1 / cqm=0 / deadzone=21,11 / fast_pskip=0 / chroma_qp_offset=-2 / threads=12 / lookahead_threads=3 / sliced_threads=0 / nr=0 / decimate=0 / interlaced=0 / bluray_compat=0 / constrained_intra=0 / bframes=12 / b_pyramid=2 / b_adapt=2 / b_bias=0 / direct=3 / weightb=1 / open_gop=0 / weightp=2 / keyint=250 / keyint_min=23 / scenecut=40 / intra_refresh=0 / rc_lookahead=40 / rc=crf / mbtree=1 / crf=16.0 / qcomp=0.60 / qpmin=0 / qpmax=81 / qpstep=4 / ip_ratio=1.40 / aq=3:1.00Language : JapaneseDefault : YesForced : NoColor range : LimitedColor primaries : BT.709Matrix coefficients : BT.709

AudioID : 2Format : FLACFormat/Info : Free Lossless Audio CodecCodec ID : A_FLACDuration : 23mn 42sBit rate mode : VariableBit rate : 1 426 KbpsChannel(s) : 2 channelsChannel positions : Front: L RSampling rate : 48.0 KHzFrame rate : 10.417 fps (4608 spf)Bit depth : 24 bitsStream size : 242 MiB (33%)Title : FLAC 2.0 (24bit)Writing library : Lavf57.2.100Language : JapaneseDefault : YesForced : No

TextID : 3Format : ASSCodec ID : S_TEXT/ASSCodec ID/Info : Advanced Sub Station AlphaDuration : 23mn 38sBit rate : 1 325 bpsCount of elements : 1930Compression mode : LosslessStream size : 230 KiB (0%)Title : Styled Subs [Asenshi]Language : EnglishDefault : YesForced : No

Menu00:00:00.000 : en:Prologue00:02:28.022 : en:Opening00:03:58.029 : en:Part A00:10:25.082 : en:Part B00:21:56.064 : en:Ending00:23:26.071 : en:Preview
1. This Silent Beginning
2. That Feverish Bond
3. That Accidental Reunion
4. Those Wild Delusions
5. This Impatience an Awakening
6. That Existence is Dark Black
7. That Lie a Scar
8. This World is My Property
9. That Abrupt Separation
10. This Warmth Is at Its Limit
11. That Locked Window
12. This Selection...
<a href="viewtopic.php?t=4838609" class="postLink">...4838609</a> - BDRip

Данный релиз предназначен для просмотра на ПК. Воспроизведение на иных проигрывателях не гарантируется. Для просмотра рекомендуется Media Player Classic с установленным пакетом кодеков K-Lite.



Трекер:  [ 16-Апр-2016 08:30 ]

  

Скачать .torrent

Размер .torrent файла 37 KB


Размер: 6.99 GB
Хэш (hash) релиза: 81faba4f56cf7b5b19c6597d94d0903e5ed826e6
Подписка на обновления:

Торренты, похожие на Заражённый селектор WIXOSS скачать торрент

Форум Название Автор Размер S L Добавлен
Аниме | HD Rips ·· Заражённый селектор WIXOSS / Selector Infected WIXOSS [TV] [12 + 3 из 12 + 3] [Без хардсаба] [JAP, SUB] [2014 г., мистика, BDRemux] [1080p] Galfimbul 8582552146979.93 GB 0 0 1464094781

15:59

24-Май-16

Аниме | HD Rips ·· Заражённый селектор WIXOSS / Selector Infected Wixoss (Сато Такуя) [TV+Special] [без хардсаба] [12+3 из 12+3] [JAP+SUB] & [12+0 из 12+3] [RUS(ext)] [2014 г., триллер, драма, BDRip] [720p] Galfimbul 80854611867.53 GB 0 0 1430498983

19:49

1-Май-15

Аниме | HD Rips ·· Заражённый селектор WIXOSS / Selector Infected Wixoss (Сато Такуя) [TV] [4 из 12] [без хардсаба] [RUS(ext), JAP+SUB] [2014 г., триллер, драма, BDRip] [1080p] Galfimbul 63627955365.93 GB 0 0 1413391626

19:47

15-Окт-14

Аниме | Rips ·· Заражённый селектор WIXOSS / Selector Infected Wixoss (Сато Такуя) [TV] [4 из 12] [без хардсаба] [RUS(ext), JAP+SUB] [2014 г., триллер, драма, BDRip] [1080p] Galfimbul 64997502176.05 GB 0 0 1413391558

19:45

15-Окт-14

Аниме | HD Rips ·· Заражённый селектор WIXOSS / Selector Infected Wixoss (Сато Такуя) [TV] [4 из 12] [без хардсаба] [RUS(ext), JAP+SUB] [2014 г., триллер, драма, BDRip] [720p] Galfimbul 26680616962.48 GB 0 0 1411309844

17:30

21-Сен-14

Аниме | HD Rips ·· Заражённый селектор WIXOSS / Selector infected WIXOSS (Такуя Сато) [TV] [01-06 из 12] [Без хардсаба] [RUS(int),JAP+SUB] [2014 г., приключения, WEBRip] [720p] Galfimbul 20444739461.9 GB 0 0 1410683439

11:30

14-Сен-14

Еще никто не оставлял запись к записи скачать торрент Заражённый селектор WIXOSS . Будь первым!

!Обратная связь