Скачать через торрент Арпеджио голубой стали Aoki Hagane no Arpeggio: Ars Nova бесплатно Аниме Все серии на русском torrent

Если у вас наблюдаются проблемы со скриншотами, переходом по ссылками, скачиванием торрентов - проблемы в блокировщике рекламы AdBlock. #хорошегоДня!


Статистика раздачи
Размер:  79.46 GB   |    Зарегистрирован:  1 год 7 месяцев   |    .torrent скачан:  40 раз   |   
Раздают:  1  
   
Загрузка...
 
Автор Сообщение

Galfimbul

avatar Galfimbul


Арпеджио голубой стали / Aoki Hagane no Arpeggio: Ars Nova

Год выпуска: 2013
Страна: Япония
Жанр: фантастика, романтика
Тип: TV
Продолжительность: 12 эп. по 24 мин.
Озвучка:
<ol class="post-ul">
Двухголосая (муж/жен) от Lupin & Say (Anilibria)
Двухголосая (муж/жен) от BalFor & Гамлетка Цезаревна (AniDub)
</ol>

Русские субтитры: есть (отдельным файлом, формат .ass)
Перевод:
<ol class="post-ul">
Jenia aka Zub, Мария Гостюхина, Сова [HUNTA] & [Fratelli]
</ol>
Хардсаб: Нет
Режиссер: Киси Сэйдзи
Студия: Sanzigen

Описание: В этом мире ледяные шапки Земли в XXI веке тоже подтаяли, но по морям-океанам особо не поплаваешь – откуда ни возьмись, явился «Флот Тумана» из разумных кораблей. Пришельцы, ведомые искусственным интеллектом, превосходящие землян технически, блокировали привычные водные и воздушные пути, в результате люди стали пленниками сухопутья. Совершенные боевые корабли Тумана, многие из которых имеют человеческую аватару, господствуют в море, но не трогают сушу. Прошло почти двадцать лет, а конца конфликту не видно. Впрочем, со временем перебежчики появились с обеих сторон, а это значит, что взаимопонимание в принципе возможно!

Японцам не привыкать к островной жизни, при этом лихих флотоводцев у них всегда хватало. Юный Гундзо Тихая – потомственный моряк, и, хотя у властей к парню много вопросов, деваться некуда – только у него есть подлодка I-401, чей аватар Иона добровольно перешла на сторону людей. А значит, у 18-летнего капитана имеется реальный шанс прорвать блокаду и доставить в Америку секретный груз, от которого зависит исход затянувшейся войны. Вот так началась тихоокеанская одиссея на ходу формируемой эскадры «Голубая Сталь». Одно непонятно: почему все аватары кораблей Тумана – исключительно симпатичные девушки?!
© Hollow, World Art

Качество: Blu-Ray Remux
Формат: MKV
Видео кодек: AVC
Аудио кодек: FLAC
Видео: 1920x1080 (16:9) 23,976 fps ~26,7 Mbps 8bit
Аудио:
Jap FLAC, 48000Hz, ~1444 kbps 2ch
RUS 1-2 (ext) AC3, 48000Hz, ~192 Kbps, 2ch

Чаптеры присутствуют.
01. Тем, кто на морских путях
02. В шторм
03. Портовая крепость Ёкосука
04. Штурм Ёкосуки
05. Не Человек
06. Друг
07. Иводзима
08. Кукольный Дом
09. Отчаянный Побег
10. Отдавая всего себя
11. Сестры
12. Сила, что ведет вперед
Общее
Уникальный идентификатор : 242511508235950921618800275718968742041 (0xB672047E9DCC7FD08B71C5C032889099)
Полное имя : M:\pub\Video\Anime\Aoki Hagane no Arpeggio Ars Nova\TV\[anti-raws]Aoki Hagane no Arpeggio Ars Nova ep.01[BDRemux].mkv
Формат : Matroska
Версия формата : Version 4 / Version 2
Размер файла : 4,89 Гбайт
Продолжительность : 24 м.
Режим общего битрейта : Переменный
Общий поток : 28,8 Мбит/сек
Дата кодирования : UTC 2016-04-16 18:09:54
Программа кодирования : mkvmerge v9.0.1 ('Obstacles') 64bit
Библиотека кодирования : libebml v1.3.3 + libmatroska v1.4.4

Видео
Идентификатор : 2
Формат : AVC
Формат/Информация : Advanced Video Codec
Профиль формата : High@L4.1
Параметр CABAC формата : Да
Параметр ReFrames формата : 2 кадра
Параметр GOP формата : M=3, N=12
Идентификатор кодека : V_MPEG4/ISO/AVC
Продолжительность : 24 м.
Вид битрейта : Переменный
Битрейт : 27,4 Мбит/сек
Максимальный битрейт : 38,0 Мбит/сек
Ширина : 1920 пикселей
Высота : 1080 пикселей
Соотношение сторон : 16:9
Режим частоты кадров : Постоянный
Частота кадров : 23,976 (24000/1001) кадра/сек
Цветовое пространство : YUV
Субдискретизация насыщенности : 4:2:0
Битовая глубина : 8 бит
Тип развёртки : Прогрессивная
Бит/(Пиксели*Кадры) : 0.551
Размер потока : 4,64 Гбайт (95%)
Default : Нет
Forced : Нет
Цветовой диапазон : Limited
Основные цвета : BT.709
Характеристики трансфера : BT.709
Коэффициенты матрицы : BT.709

Аудио
Идентификатор : 1
Формат : FLAC
Формат/Информация : Free Lossless Audio Codec
Идентификатор кодека : A_FLAC
Продолжительность : 24 м.
Вид битрейта : Переменный
Битрейт : 1443 Кбит/сек
Каналы : 2 канала
Расположение каналов : Front: L R
Частота : 48,0 КГц
Частота кадров : 11,719 кадров/сек (4096 spf)
Битовая глубина : 24 бит
Размер потока : 251 Мбайт (5%)
Библиотека кодирования : libFLAC 1.2.1 (UTC 2007-09-17)
Язык : Japanese
Default : Да
Forced : Нет

Меню
00:00:00.000 : en:00:00:00.000
00:02:14.176 : en:00:02:14.176
00:10:12.987 : en:00:10:12.987
00:22:45.948 : en:00:22:45.948
<a href="viewtopic.php?t=4571757" class="postLink">...4571757</a>
--WEBRip

<a href="viewtopic.php?t=4583049" class="postLink">...4583049</a>
--HDTVRip

<a href="viewtopic.php?t=4628703" class="postLink">...4628703</a>
<a href="viewtopic.php?t=4627321" class="postLink">...4627321</a>
--BDRip

Эта раздача - BDRemux


Трекер:  [ 18-Апр-2016 23:30 ]

  

Скачать .torrent

Размер .torrent файла 118 KB


Размер: 79.46 GB
Хэш (hash) релиза: 72eac29f5d076350e8c2b440db76e4103e854f25
Подписка на обновления:

Еще никто не оставлял запись к записи скачать торрент Арпеджио голубой стали Aoki Hagane no Arpeggio: Ars Nova . Будь первым!

!Обратная связь