Скачать через торрент Покорение мира: Заговор «Звезды» World Conquest Zvezda Plot бесплатно Аниме Все серии на русском torrent

Если у вас наблюдаются проблемы со скриншотами, переходом по ссылками, скачиванием торрентов - проблемы в блокировщике рекламы AdBlock. #хорошегоДня!


Статистика раздачи
Размер:  10.1 GB   |    Зарегистрирован:  1 год 7 месяцев   |    .torrent скачан:  36 раз   |   
Раздают:  1  
   
Загрузка...
 
Автор Сообщение

Galfimbul

avatar Galfimbul


Покорение мира: Заговор «Звезды» / World Conquest Zvezda Plot / Sekai Seifuku: Bouryaku no Zvezda
Год выпуска: 2014
Страна: Япония
Жанр: приключения, комедия
Продолжительность: 12+1 эп. по 25 мин.
Перевод:
<ol class="post-ul">
русские субтитры - Yakusub (серии 1-12)
русские субтитры - Ambiente (серии 1-13)
</ol>
Режиссёр: Окамура Тэнсай
Студия: J.C. Staff
Информационные ссылки: AniDB || World Art || MAL
Описание: В жестоком будущем внешне благополучная Япония стоит на грани гражданской войны. Что же делать? «Изменить мир!» - считает юная Кэйт Хосимия, создавшая тайную организацию «Звезда» со штаб-квартирой в местечке Западная Удогава (там табличка у входа для особо непонятливых). Сама Кэйт – прирожденный лидер, научную поддержку повстанцам обеспечивает украинская эмигрантка Наташа Васильченко, а боевые операции за бывшим бандитом Горо, он же Генерал Пепел, и его дочерью Ицукой по кличке Пламя. Столь громким именам надо соответствовать, и за неимением русского хрена члены группы регулярно пополняют силы и энергию, поедая удо – японский сельдерей!

Вот в такую веселую компанию попал сбежавший из дома школьник Асута Дзимон, получивший в партизанском отряде должность повара и кодовое имя Два. Бедняга Асута оказался меж двух огней – ведь его новые друзья в «Звезде», а родные и старые знакомые поголовно на стороне правительства или состоят в организации супергероев «Белый свет». Впрочем, как и у нас, формальные антагонисты, борцы за свободу и правоохранители частенько спокойно общаются между собой, ходят в одну баню, только сакэ вместе не пьют по причине малолетства. Конечно, иногда сражаться приходится – так это политика, она жить мешать не должна. А свет Звезды, товарищи, все равно рано или поздно воссияет над миром!

© Hollow, World Art
Качество: BDRip
Источник: PD/Share
Тип релиза: Без хардсаба
Формат видео: mp4
Видео: x264, 1920x1080, ~3000 kbps, 23.976 fps
Аудио JAP: ACC, 48000Hz, ~300 Kbps, 2ch
GeneralComplete name : Sekai Seifuku - Bouryaku no Zvezda 01 [1920x1080 x264 AAC].mp4Format : MPEG-4Format profile : Base MediaCodec ID : isom (isom)File size : 580 MiBDuration : 24mn 30sOverall bit rate mode : VariableOverall bit rate : 3 309 KbpsEncoded date : UTC 2014-05-24 18:59:01Tagged date : UTC 2014-05-24 18:59:01

VideoID : 1Format : AVCFormat/Info : Advanced Video CodecFormat profile : High@L4Format settings, CABAC : YesFormat settings, ReFrames : 4 framesCodec ID : avc1Codec ID/Info : Advanced Video CodingDuration : 24mn 29sBit rate mode : VariableBit rate : 3 008 KbpsMaximum bit rate : 25.0 MbpsWidth : 1 920 pixelsHeight : 1 080 pixelsDisplay aspect ratio : 16:9Frame rate mode : VariableFrame rate : 23.976 (23976/1000) fpsMinimum frame rate : 23.976 fpsMaximum frame rate : 119.880 fpsOriginal frame rate : 23.976 (24000/1001) fpsColor space : YUVChroma subsampling : 4:2:0Bit depth : 8 bitsScan type : ProgressiveBits/(Pixel*Frame) : 0.061Stream size : 527 MiB (91%)Title : MainWriting library : x264 core 132 r2309 3b1f1f7Encoding settings : cabac=1 / ref=3 / deblock=1:-1:-1 / analyse=0x3:0x113 / me=umh / subme=11 / psy=1 / psy_rd=1.10:0.00 / mixed_ref=1 / me_range=48 / chroma_me=1 / trellis=2 / 8x8dct=1 / cqm=0 / deadzone=21,11 / fast_pskip=0 / chroma_qp_offset=-3 / threads=3 / lookahead_threads=1 / sliced_threads=0 / nr=0 / decimate=0 / interlaced=0 / bluray_compat=0 / constrained_intra=0 / bframes=3 / b_pyramid=2 / b_adapt=2 / b_bias=0 / direct=3 / weightb=1 / open_gop=0 / weightp=2 / keyint=240 / keyint_min=1 / scenecut=60 / intra_refresh=0 / rc_lookahead=50 / rc=crf / mbtree=1 / crf=18.0 / qcomp=0.65 / qpmin=6 / qpmax=69 / qpstep=10 / vbv_maxrate=25000 / vbv_bufsize=25000 / crf_max=0.0 / nal_hrd=vbr / ip_ratio=1.30 / aq=1:1.10Language : JapaneseEncoded date : UTC 2014-05-25 13:17:42Tagged date : UTC 2014-05-24 18:59:04Color range : LimitedColor primaries : BT.709Transfer characteristics : BT.709Matrix coefficients : BT.709

AudioID : 2Format : AACFormat/Info : Advanced Audio CodecFormat profile : LCCodec ID : 40Duration : 24mn 30sBit rate mode : VariableBit rate : 297 KbpsMaximum bit rate : 361 KbpsChannel(s) : 2 channelsChannel positions : Front: L RSampling rate : 48.0 KHzFrame rate : 46.875 fps (1024 spf)Compression mode : LossyStream size : 52.0 MiB (9%)Title : MainLanguage : JapaneseEncoded date : UTC 2014-05-24 18:59:02Tagged date : UTC 2014-05-24 18:59:04

Menu00:00:00.000 : Avant00:01:57.721 : A Part00:11:10.023 : B Part00:22:12.018 : Ending00:23:42.024 : C Part00:24:00.042 : Preview
01. Покорение человечества / Conquer All Humans
02. Из-за стола прямиком в могилу / From the Dining Table to the Grave
03. Исчезая в облаке дыма / Hiding Behind Smoke and Mirrors
04. Удо в холодной земле / Udo`s in the Cold Ground
05. Белая Робин в опасности! / White Robin in Danger!
06. Клуб Сокровищ После Школы (Часть 1) / After School Treasure Club (Part 1)
07. Клуб Сокровищ После Школы (Часть 2) / After School Treasure Club (Part 2)
08. Сокол приземлился / The Falcon Has Landed
09. Маскарад на пару / Steamy Masquerade
10. На фронте Западной Удогавы всё неспокойно / Not All Quiet on the West Udogawa Front
11. Что осталось от мечты захватчика? / All That Remains of Conqueror`s Dreams
12. Пусть свет "Звезды" светит всему миру! / May the Light of Zvezda Shine Throughout This World
13. Операция "Новая Звезда" / Operation New Zvezda
<a href="viewtopic.php?t=4640834" class="postLink">...4640834</a> - BDRip
<a href="viewtopic.php?t=4989983" class="postLink">...4989983</a> - BDRip
<a href="viewtopic.php?t=5177278" class="postLink">...5177278</a> - наличие всех серий

Данный релиз предназначен для просмотра на ПК. Воспроизведение на иных проигрывателях не гарантируется. Для просмотра рекомендуется Media Player Classic с установленным пакетом кодеков K-Lite.



Трекер:  [ 21-Апр-2016 09:00 ]

  

Скачать .torrent

Размер .torrent файла 55 KB


Размер: 10.1 GB
Хэш (hash) релиза: 6a977fa45ce91565096259c438b13cf43ebb798c
Подписка на обновления:

Торренты, похожие на Покорение мира: Заговор «Звезды» World Conquest Zvezda Plot скачать торрент

Форум Название Автор Размер S L Добавлен
Аниме | Rips ·· Покорение мира: Заговор «Звезды» / World Conquest Zvezda Plot / Sekai Seifuku: Bouryaku no Zvezda [TV+Special] [01-12+01 из 12+01] [Без хардсаба] [RUS(ext), JAP, SUB] [2014 г., Приключения, Комедия, Фэнтези, BDRip] [720p] Galfimbul 48756794344.54 GB 0 0 1456297717

10:08

24-Фев-16

Еще никто не оставлял запись к записи скачать торрент Покорение мира: Заговор «Звезды» World Conquest Zvezda Plot . Будь первым!

!Обратная связь