Скачать через торрент музыку Репортаж 4: Апокалипсис Rec 4 бесплатно без регистрации torrent

Если у вас наблюдаются проблемы со скриншотами, переходом по ссылками, скачиванием торрентов - проблемы в блокировщике рекламы AdBlock. #хорошегоДня!


Статистика раздачи
Размер:  193 MB   |    Зарегистрирован:  1 год 7 месяцев   |    .torrent скачан:  17 раз   |   
Раздают:  1  
   
Загрузка...
 
Автор Сообщение

Galfimbul

avatar Galfimbul


Репортаж 4: Апокалипсис / Rec 4
[Original Motion Picture Soundtrack]

Композитор: Arnau Bataller
Жанр: Score

Год выпуска диска: 2014
Страна-производитель диска: США
Издатель: Scream Works
Номер по каталогу: SWR-14015

Продолжительность: 00:44:13

Аудиокодек: FLAC (*.flac)
Тип рипа: tracks+.cue
Источник: собственный диск
01. Arnau Bataller - Countdown (00:02:17)
02. Arnau Bataller - Inside The House (00:03:51)
03. Arnau Bataller - The Medeiros Girl (00:03:09)
04. Arnau Bataller - First Attack (00:02:20)
05. Arnau Bataller - Security Gates (00:02:25)
06. Arnau Bataller - The Infection: Part 1 (00:02:50)
07. Arnau Bataller - Fighting (00:03:46)
08. Arnau Bataller - Recovering The Tape (00:02:00)
09. Arnau Bataller - The Infection: Part 2 (00:03:14)
10. Arnau Bataller - Nick The Hero (00:03:36)
11. Arnau Bataller - It's a Parasite (00:04:58)
12. Arnau Bataller - Angela's Show (00:05:37)
13. Arnau Bataller - Escaping (00:02:25)
14. Arnau Bataller - Nick The Hero (Reprise) (00:01:45)
Exact Audio Copy V1.1 from 23. June 2015

EAC extraction logfile from 24. April 2016, 4:31

Arnau Bataller / Rec 4 [Original Motion Picture Soundtrack]

Used drive : ASUS BW-12D1S-U Adapter: 1 ID: 0

Read mode : SecureUtilize accurate stream : YesDefeat audio cache : YesMake use of C2 pointers : No

Read offset correction : 0Overread into Lead-In and Lead-Out : NoFill up missing offset samples with silence : YesDelete leading and trailing silent blocks : NoNull samples used in CRC calculations : YesUsed interface : Native Win32 interface for Win NT & 2000Gap handling : Appended to previous track

Used output format : User Defined EncoderSelected bitrate : 896 kBit/sQuality : HighAdd ID3 tag : YesCommand line compressor : C:\Program Files (x86)\Exact Audio Copy\Flac\flac.exeAdditional command line options : -T "TITLE=%title%" -T "ARTIST=%artist%" -T "ALBUM=%albumtitle%" -T "YEAR=%year%" -T "TRACK=%tracknr2%" -T "ALBUMARTIST=%albumartist%" -T "COMPOSER=%composer%" -T "GENRE=%genre%" -T "PUBLISHER=%comment%" -6 -V %source% -o %dest%

TOC of the extracted CD

Track | Start | Length | Start sector | End sector --------------------------------------------------------- 1 | 0:00.00 | 2:17.11 | 0 | 10285 2 | 2:17.11 | 3:50.54 | 10286 | 27589 3 | 6:07.65 | 3:08.51 | 27590 | 41740 4 | 9:16.41 | 2:20.25 | 41741 | 52265 5 | 11:36.66 | 2:24.71 | 52266 | 63136 6 | 14:01.62 | 2:50.08 | 63137 | 75894 7 | 16:51.70 | 3:45.46 | 75895 | 92815 8 | 20:37.41 | 2:00.05 | 92816 | 101820 9 | 22:37.46 | 3:13.70 | 101821 | 116365 10 | 25:51.41 | 3:36.22 | 116366 | 132587 11 | 29:27.63 | 4:57.43 | 132588 | 154905 12 | 34:25.31 | 5:36.66 | 154906 | 180171 13 | 40:02.22 | 2:25.09 | 180172 | 191055 14 | 42:27.31 | 1:44.63 | 191056 | 198918

Track 1

Filename D:\Music\Scores & Soundtracks\Official Film Scores & Soundtracks\Rec 4 [Original Motion Picture Soundtrack]\01. Countdown.wav

Pre-gap length 0:00:02.00

Peak level 98.3 % Extraction speed 3.4 X Track quality 99.9 % Test CRC E398C045 Copy CRC E398C045 Copy OK

Track 2

Filename D:\Music\Scores & Soundtracks\Official Film Scores & Soundtracks\Rec 4 [Original Motion Picture Soundtrack]\02. Inside The House.wav

Peak level 98.9 % Extraction speed 4.2 X Track quality 99.9 % Test CRC D1FCE964 Copy CRC D1FCE964 Copy OK

Track 3

Filename D:\Music\Scores & Soundtracks\Official Film Scores & Soundtracks\Rec 4 [Original Motion Picture Soundtrack]\03. The Medeiros Girl.wav

Peak level 95.1 % Extraction speed 5.0 X Track quality 100.0 % Test CRC 32CB5308 Copy CRC 32CB5308 Copy OK

Track 4

Filename D:\Music\Scores & Soundtracks\Official Film Scores & Soundtracks\Rec 4 [Original Motion Picture Soundtrack]\04. First Attack.wav

Peak level 98.0 % Extraction speed 4.9 X Track quality 100.0 % Test CRC C8203067 Copy CRC C8203067 Copy OK

Track 5

Filename D:\Music\Scores & Soundtracks\Official Film Scores & Soundtracks\Rec 4 [Original Motion Picture Soundtrack]\05. Security Gates.wav

Peak level 69.3 % Extraction speed 5.2 X Track quality 100.0 % Test CRC 2A2EB52E Copy CRC 2A2EB52E Copy OK

Track 6

Filename D:\Music\Scores & Soundtracks\Official Film Scores & Soundtracks\Rec 4 [Original Motion Picture Soundtrack]\06. The Infection- Part 1.wav

Peak level 98.6 % Extraction speed 5.5 X Track quality 100.0 % Test CRC 39125266 Copy CRC 39125266 Copy OK

Track 7

Filename D:\Music\Scores & Soundtracks\Official Film Scores & Soundtracks\Rec 4 [Original Motion Picture Soundtrack]\07. Fighting.wav

Peak level 100.0 % Extraction speed 6.1 X Track quality 100.0 % Test CRC AED3A851 Copy CRC AED3A851 Copy OK

Track 8

Filename D:\Music\Scores & Soundtracks\Official Film Scores & Soundtracks\Rec 4 [Original Motion Picture Soundtrack]\08. Recovering The Tape.wav

Peak level 98.6 % Extraction speed 5.5 X Track quality 100.0 % Test CRC 734612CE Copy CRC 734612CE Copy OK

Track 9

Filename D:\Music\Scores & Soundtracks\Official Film Scores & Soundtracks\Rec 4 [Original Motion Picture Soundtrack]\09. The Infection- Part 2.wav

Peak level 95.4 % Extraction speed 6.2 X Track quality 100.0 % Test CRC 5FE23B4F Copy CRC 5FE23B4F Copy OK

Track 10

Filename D:\Music\Scores & Soundtracks\Official Film Scores & Soundtracks\Rec 4 [Original Motion Picture Soundtrack]\10. Nick The Hero.wav

Peak level 97.5 % Extraction speed 6.5 X Track quality 100.0 % Test CRC 2A982620 Copy CRC 2A982620 Copy OK

Track 11

Filename D:\Music\Scores & Soundtracks\Official Film Scores & Soundtracks\Rec 4 [Original Motion Picture Soundtrack]\11. It's a Parasite.wav

Peak level 96.7 % Extraction speed 7.1 X Track quality 100.0 % Test CRC 854F3CE0 Copy CRC 854F3CE0 Copy OK

Track 12

Filename D:\Music\Scores & Soundtracks\Official Film Scores & Soundtracks\Rec 4 [Original Motion Picture Soundtrack]\12. Angela's Show.wav

Peak level 96.7 % Extraction speed 7.5 X Track quality 100.0 % Test CRC C49B5A14 Copy CRC C49B5A14 Copy OK

Track 13

Filename D:\Music\Scores & Soundtracks\Official Film Scores & Soundtracks\Rec 4 [Original Motion Picture Soundtrack]\13. Escaping.wav

Peak level 99.5 % Extraction speed 5.5 X Track quality 99.9 % Test CRC 9B899B00 Copy CRC 9B899B00 Copy OK

Track 14

Filename D:\Music\Scores & Soundtracks\Official Film Scores & Soundtracks\Rec 4 [Original Motion Picture Soundtrack]\14. Nick The Hero (Reprise).wav

Peak level 97.5 % Extraction speed 6.2 X Track quality 100.0 % Test CRC CFBA92F5 Copy CRC CFBA92F5 Copy OK

No errors occurred

End of status report

---- CUETools DB Plugin V2.1.6

[CTDB TOCID: T4wTrxO0WOvBXVYtA63gWJxWltY-] disk not present in databaseSubmit result: T4wTrxO0WOvBXVYtA63gWJxWltY- has been uploaded
REM GENRE ScoreREM DATE 2014REM DISCID D10A5C0EREM COMMENT "ExactAudioCopy v1.1"PERFORMER "Arnau Bataller"TITLE "Rec 4 [Original Motion Picture Soundtrack]"FILE "01. Countdown.wav" WAVE TRACK 01 AUDIO TITLE "Countdown" PERFORMER "Arnau Bataller" INDEX 01 00:00:00FILE "02. Inside The House.wav" WAVE TRACK 02 AUDIO TITLE "Inside The House" PERFORMER "Arnau Bataller" INDEX 01 00:00:00FILE "03. The Medeiros Girl.wav" WAVE TRACK 03 AUDIO TITLE "The Medeiros Girl" PERFORMER "Arnau Bataller" INDEX 01 00:00:00FILE "04. First Attack.wav" WAVE TRACK 04 AUDIO TITLE "First Attack" PERFORMER "Arnau Bataller" INDEX 01 00:00:00FILE "05. Security Gates.wav" WAVE TRACK 05 AUDIO TITLE "Security Gates" PERFORMER "Arnau Bataller" INDEX 01 00:00:00FILE "06. The Infection- Part 1.wav" WAVE TRACK 06 AUDIO TITLE "The Infection: Part 1" PERFORMER "Arnau Bataller" INDEX 01 00:00:00FILE "07. Fighting.wav" WAVE TRACK 07 AUDIO TITLE "Fighting" PERFORMER "Arnau Bataller" INDEX 01 00:00:00FILE "08. Recovering The Tape.wav" WAVE TRACK 08 AUDIO TITLE "Recovering The Tape" PERFORMER "Arnau Bataller" INDEX 01 00:00:00FILE "09. The Infection- Part 2.wav" WAVE TRACK 09 AUDIO TITLE "The Infection: Part 2" PERFORMER "Arnau Bataller" INDEX 01 00:00:00FILE "10. Nick The Hero.wav" WAVE TRACK 10 AUDIO TITLE "Nick The Hero" PERFORMER "Arnau Bataller" INDEX 01 00:00:00FILE "11. It's a Parasite.wav" WAVE TRACK 11 AUDIO TITLE "It's a Parasite" PERFORMER "Arnau Bataller" INDEX 01 00:00:00FILE "12. Angela's Show.wav" WAVE TRACK 12 AUDIO TITLE "Angela's Show" PERFORMER "Arnau Bataller" INDEX 01 00:00:00FILE "13. Escaping.wav" WAVE TRACK 13 AUDIO TITLE "Escaping" PERFORMER "Arnau Bataller" INDEX 01 00:00:00FILE "14. Nick The Hero (Reprise).wav" WAVE TRACK 14 AUDIO TITLE "Nick The Hero (Reprise)" PERFORMER "Arnau Bataller" INDEX 01 00:00:00


Трекер:  [ 24-Апр-2016 05:00 ]

  

Скачать .torrent

Размер .torrent файла 16 KB


Размер: 193 MB
Хэш (hash) релиза: 7a2764b85b635feefc3df455eead5f4f51816a8a

Торренты, похожие на Репортаж 4: Апокалипсис Rec 4 скачать торрент

Форум Название Автор Размер S L Добавлен
Саундтреки к фильмам и мультфильмам (lossless) ·· (Score) Репортаж 4: Апокалипсис / Rec 4 [Original Motion Picture Soundtrack] (Arnau Bataller) - 2014, FLAC (tracks+.cue), lossless Galfimbul 198146617189 MB 0 0 1464113380

21:09

24-Май-16

Еще никто не оставлял запись к записи скачать торрент Репортаж 4: Апокалипсис Rec 4 . Будь первым!

!Обратная связь