Скачать через торрент музыку Абсолютно естественный LAssoluto Naturale бесплатно без регистрации torrent

Если у вас наблюдаются проблемы со скриншотами, переходом по ссылками, скачиванием торрентов - проблемы в блокировщике рекламы AdBlock. #хорошегоДня!


Статистика раздачи
Размер:  329 MB   |    Зарегистрирован:  1 год 7 месяцев   |    .torrent скачан:  51 раз   |   
Раздают:  1  
   
Загрузка...
 
Автор Сообщение

Galfimbul

avatar Galfimbul


Абсолютно естественный / L'Assoluto Naturale

Жанр: Score
Композитор: Ennio Morricone
Год выпуска диска: 2013
Год выпуска фильма: 1969
Производитель диска: Spain
Издатель (лейбл): Quartet Records
Номер по каталогу: MS017

Аудиокодек: FLAC (*.flac)
Тип рипа: image+.cue
Битрейт аудио: lossless
Продолжительность: 66.02
Источник: собственный рип
Наличие сканов в содержимом раздачи: да (600 dpi)
01. L'Assoluto Naturale [03:38.19]
02. Sempre Piu Verita [02:52.37]
03. E Facile [02:24.72]
04. Calde Occhiate [01:52.73]
05. Studio Di Colore [01:13.40]
06. Il Profumo Della Tua Pelle [02:05.44]
07. Laboriosamente [06:52.14]
08. Sembravi Desiderare [02:42.38]
09. Amare Assolutamente [04:01.19]
10. E La Solita Storia [01:04.52]
11. Imparare A Conoscere [04:08.50]
12. L'Estate E Vicina [03:01.46]
13. Assalito Dalle Rondini [05:38.12]

Bonus Tracks
14. Il Profumo Della Tua Pelle (Ballate Per Organo) [02:19.17]
15. E Facile (Nella Sensualita, L'Attesa) [01:25.33]
16. Assalito Dalle Rondini (Tensione Infernale) [06:13.25]
17. Sempre Più Verità (Sviluppo In Beat) [02:53.55]
18. Calde Ochiate (Sospettoso Erotico) [06:31.60]
19. L'Estate E Vicina (Riflessi Dell'Anima) [01:39.10]
20. L'Assoluto Naturale (Ridercare, Amare) [03:32.09]
Exact Audio Copy V1.0 beta 3 from 29. August 2011

EAC extraction logfile from 27. May 2013, 21:52

Ennio Morricone / L'Assoluto Naturale

Used drive : TSSTcorpCDDVDW SH-S202H Adapter: 0 ID: 0

Read mode : SecureUtilize accurate stream : YesDefeat audio cache : YesMake use of C2 pointers : No

Read offset correction : 6Overread into Lead-In and Lead-Out : NoFill up missing offset samples with silence : YesDelete leading and trailing silent blocks : NoNull samples used in CRC calculations : YesUsed interface : Native Win32 interface for Win NT & 2000

Used output format : Internal WAV RoutinesSample format : 44.100 Hz; 16 Bit; Stereo

TOC of the extracted CD

Track | Start | Length | Start sector | End sector --------------------------------------------------------- 1 | 0:00.00 | 3:38.19 | 0 | 16368 2 | 3:38.19 | 2:52.37 | 16369 | 29305 3 | 6:30.56 | 2:24.72 | 29306 | 40177 4 | 8:55.53 | 1:52.73 | 40178 | 48650 5 | 10:48.51 | 1:13.40 | 48651 | 54165 6 | 12:02.16 | 2:05.44 | 54166 | 63584 7 | 14:07.60 | 6:52.14 | 63585 | 94498 8 | 20:59.74 | 2:42.38 | 94499 | 106686 9 | 23:42.37 | 4:01.19 | 106687 | 124780 10 | 27:43.56 | 1:04.52 | 124781 | 129632 11 | 28:48.33 | 4:08.50 | 129633 | 148282 12 | 32:57.08 | 3:01.46 | 148283 | 161903 13 | 35:58.54 | 5:38.12 | 161904 | 187265 14 | 41:36.66 | 2:19.17 | 187266 | 197707 15 | 43:56.08 | 1:25.33 | 197708 | 204115 16 | 45:21.41 | 6:13.25 | 204116 | 232115 17 | 51:34.66 | 2:53.55 | 232116 | 245145 18 | 54:28.46 | 6:31.60 | 245146 | 274530 19 | 61:00.31 | 1:39.10 | 274531 | 281965 20 | 62:39.41 | 3:32.09 | 281966 | 297874

Range status and errors

Selected range

Filename D:\Ennio Morricone - L'Assoluto Naturale\Ennio Morricone - L'Assoluto Naturale.wav

Peak level 100.0 % Extraction speed 8.0 X Range quality 100.0 % Test CRC DFCDB7D0 Copy CRC DFCDB7D0 Copy OK

No errors occurred

AccurateRip summary

Track 1 not present in databaseTrack 2 not present in databaseTrack 3 not present in databaseTrack 4 not present in databaseTrack 5 not present in databaseTrack 6 not present in databaseTrack 7 not present in databaseTrack 8 not present in databaseTrack 9 not present in databaseTrack 10 not present in databaseTrack 11 not present in databaseTrack 12 not present in databaseTrack 13 not present in databaseTrack 14 not present in databaseTrack 15 not present in databaseTrack 16 not present in databaseTrack 17 not present in databaseTrack 18 not present in databaseTrack 19 not present in databaseTrack 20 not present in database

None of the tracks are present in the AccurateRip database

End of status report

==== Log checksum 7032F1EEE141AA31583BAB2D2E80B5811E79BADC36A97FD5F521E24CBBBD7BF3 ====
Вниманию почтенной публики представляется полная версия саундтрека легендарного Эннио Морриконе к драме Абсолютно естественный.
Релиз этот - особенный, по целому ряду причин. Во-первых, данный саундтрек никогда не был представлен в lossless. Ну а во-вторых, как мы и говорили - это полная версия музыки, прозвучавшей в фильме. Ранее в lossy-дискографии была представлена версия саундтрека с двумя бонусными треками. Теперь пришла очередь услышать то, что ранее никто не слышал.



Трекер:  [ 30-Апр-2016 15:30 ]

  

Скачать .torrent

Размер .torrent файла 14 KB


Размер: 329 MB
Хэш (hash) релиза: 616e84c711285830817591fbce8d4e414842a621

Торренты, похожие на Абсолютно естественный LAssoluto Naturale скачать торрент

Форум Название Автор Размер S L Добавлен
Саундтреки к фильмам и мультфильмам (mp3) ·· (Score) Абсолютно естественный / L'Assoluto Naturale (by Ennio Morricone) - 2013 (1969), MP3, 320 kbps Galfimbul 158749903151 MB 0 0 1462023518

16:38

30-Апр-16

Еще никто не оставлял запись к записи скачать торрент Абсолютно естественный LAssoluto Naturale . Будь первым!

!Обратная связь